<?xml version="1.0" standalone="no"?>
<!DOCTYPE svg PUBLIC "-//W3C//DTD SVG 1.1//EN" "http://www.w3.org/Graphics/SVG/1.1/DTD/svg11.dtd" >
<svg>
<metadata>
Created by FontForge 20090622 at Mon May 18 08:05:38 2020
 By deploy user
(C) SoftUnion Ltd. 1993 Created by N.Vsesvetskii
</metadata>
<defs>
<font id="Cyrveticav2ExtraOutline-Normal" horiz-adv-x="260" >
  <font-face 
    font-family="Cyrvetica v2 Extra Outline"
    font-weight="400"
    font-stretch="normal"
    units-per-em="1000"
    panose-1="0 0 0 0 0 0 0 0 0 0"
    ascent="800"
    descent="-200"
    x-height="530"
    cap-height="728"
    bbox="-83 -223 1134 945"
    underline-thickness="50"
    underline-position="-75"
    unicode-range="U+001D-U+2122"
  />
<missing-glyph horiz-adv-x="777" 
d="M48 0v777h681v-777h-681zM681 48v681h-585v-681h585z" />
    <glyph glyph-name=".notdef" horiz-adv-x="777" 
d="M48 0v777h681v-777h-681zM681 48v681h-585v-681h585z" />
    <glyph glyph-name=".null" horiz-adv-x="0" 
 />
    <glyph glyph-name=".null" horiz-adv-x="0" 
 />
    <glyph glyph-name="glyph2" horiz-adv-x="338" 
 />
    <glyph glyph-name="nonmarkingreturn" unicode=" " horiz-adv-x="338" 
 />
    <glyph glyph-name="exclam" unicode="!" horiz-adv-x="285" 
d="M45 728h200v-244l-34 -266h-132l-34 266v244zM245 0h-200v183h200v-183zM225 708h-160v-223l32 -247h96l32 247v223zM65 20h160v143h-160v-143z" />
    <glyph glyph-name="quotedbl" unicode="&#x22;" horiz-adv-x="337" 
d="M197 728h120v-270h-120v270zM20 728h120v-270h-120v270zM297 708h-80v-230h80v230zM120 708h-80v-230h80v230z" />
    <glyph glyph-name="numbersign" unicode="#" horiz-adv-x="589" 
d="M78 0l29 187h-107l22 139h107l11 65h-106l20 139h108l28 187h138l-29 -187h46l29 187h137l-29 -187h107l-21 -139h-106l-12 -65h106l-22 -139h-107l-27 -187h-139l29 187h-46l-29 -187h-137zM323 391h-45l-11 -65h44zM130 207l-29 -187h97l29 187h86l-29 -187h99l27 187
h107l16 99h-107l19 105h106l15 99h-107l29 187h-97l-29 -187h-86l29 187h-98l-28 -187h-108l-14 -99h107l-18 -105h-107l-16 -99h107zM261 411h86l-19 -105h-85z" />
    <glyph glyph-name="dollar" unicode="$" horiz-adv-x="584" 
d="M250 144v133q-113 26 -162 61q-78 55 -78 158q0 90 68.5 150.5t171.5 60.5v41h82v-43q105 -14 175.5 -80.5t70.5 -154.5h-189q0 29 -15 50t-42 32v-139q100 -24 121 -31q67 -23 103 -59q44 -44 44 -113q0 -110 -82 -168q-72 -51 -186 -51v-48h-82v50q-110 12 -181 77
t-71 158h186q11 -66 66 -84zM250 438v117q-50 -15 -50 -59q0 -20 12.5 -33.5t37.5 -24.5zM332 258v-118q34 5 54 19t20 40q0 22 -18.5 35t-55.5 24zM270 293v-177q-49 16 -74 40.5t-29 51.5h-149q0 -74 68.5 -129t183.5 -68v-48h42v47q122 0 190 46q76 51 76 154
q0 62 -39 100q-31 30 -99 53q-35 12 -128 34v185q47 -19 72 -45.5t25 -46.5h147q0 69 -65 124q-69 59 -179 74v40h-42v-39q-109 0 -174.5 -54.5t-65.5 -138.5q0 -73 42 -117q49 -52 198 -86zM270 582v-174q-90 38 -90 88q0 60 90 86zM312 117v168q58 -17 86 -36.5t28 -49.5
q0 -34 -30.5 -54t-83.5 -28z" />
    <glyph glyph-name="percent" unicode="%" horiz-adv-x="672" 
d="M169 431q-59 0 -104 47t-45 107q0 62 43.5 107.5t102.5 45.5q57 0 103 -47t46 -107q0 -62 -44.5 -107.5t-101.5 -45.5zM169 543q17 0 28 12t11 29q0 18 -12 30t-30 12q-16 0 -27.5 -12.5t-11.5 -29.5t12 -29t30 -12zM587 728l-407 -728h-110l407 728h110zM501 -10
q-59 0 -104 47t-45 107q0 62 43.5 107.5t102.5 45.5q57 0 103 -47t46 -107q0 -62 -44.5 -107.5t-101.5 -45.5zM501 102q17 0 28 12t11 29q0 18 -12 30t-30 12q-16 0 -27.5 -12.5t-11.5 -29.5t12 -29t30 -12zM169 451q51 0 88.5 38.5t37.5 94.5q0 53 -38.5 93.5t-90.5 40.5
q-53 0 -89.5 -38.5t-36.5 -94.5q0 -53 38.5 -93.5t90.5 -40.5zM169 523q-24 0 -43 18t-19 43q0 22 18 42t41 20q24 0 43 -19t19 -43q0 -22 -17.5 -41.5t-41.5 -19.5zM169 20l384 688h-64l-384 -688h64zM501 10q51 0 88.5 38.5t37.5 94.5q0 53 -38.5 93.5t-90.5 40.5
q-53 0 -89.5 -38.5t-36.5 -94.5q0 -53 38.5 -93.5t90.5 -40.5zM501 82q-24 0 -43 18t-19 43q0 22 18 42t41 20q24 0 43 -19t19 -43q0 -22 -17.5 -41.5t-41.5 -19.5z" />
    <glyph glyph-name="ampersand" unicode="&#x26;" horiz-adv-x="708" 
d="M485 401h180q0 -74 -20 -133t-57 -108l138 -160h-227l-36 43q-43 -32 -93.5 -47.5t-109.5 -15.5q-99 0 -170 60q-75 63 -75 161q0 66 44 121q34 42 104 89q-29 34 -43.5 67.5t-14.5 74.5q0 74 65 124.5t144 50.5q92 0 147 -41q62 -46 62 -134q0 -54 -33 -101
q-26 -37 -78 -75l59 -73q6 14 10 38t4 59zM343 553q0 34 -29 34t-29 -34q0 -17 8 -31q5 -9 22 -26q16 14 22 24.5t6 32.5zM365 164l-97 121q-26 -17 -38 -34q-15 -21 -15 -50q0 -25 16.5 -43.5t47.5 -18.5q45 0 86 25zM645 381h-140q0 -28 -5.5 -51t-23.5 -64l-93 115
q61 44 88 80q32 43 32 92q0 79 -54 119q-49 36 -135 36q-75 0 -132 -43.5t-57 -111.5q0 -40 13.5 -69.5t54.5 -76.5q-81 -54 -115 -94q-43 -51 -43 -112q0 -91 65.5 -146t159.5 -55q56 0 105.5 16t100.5 54l42 -50h174l-120 139q42 55 62.5 109t20.5 113zM363 553
q0 -25 -11 -43t-38 -41q-25 25 -37 43.5t-12 40.5q0 20 13 37t36 17q24 0 36.5 -16.5t12.5 -37.5zM272 312l123 -153q-66 -40 -116 -40q-36 0 -60 26t-24 56q0 34 19 59.5t58 51.5z" />
    <glyph glyph-name="quotesingle" unicode="'" 
d="M30 545v183h200v-169q0 -70 -57 -122t-143 -52v99q33 8 51.5 23.5t23.5 37.5h-75zM50 708v-143h81q-11 -43 -31.5 -66.5t-49.5 -30.5v-61q66 0 113 45t47 107v149h-160z" />
    <glyph glyph-name="parenleft" unicode="(" horiz-adv-x="350" 
d="M15 349q0 124 48 244q45 113 139 235h157q-79 -133 -118 -248t-39 -228q0 -115 40 -229q35 -101 117 -243h-157q-94 128 -138 232q-49 117 -49 237zM35 349q0 -117 46 -228q41 -99 131 -221h112q-70 122 -103 220q-39 115 -39 232q0 116 38 233q35 107 104 223h-112
q-88 -114 -131 -222q-46 -116 -46 -237z" />
    <glyph glyph-name="parenright" unicode=")" horiz-adv-x="350" 
d="M335 348q0 -121 -48 -236q-42 -100 -139 -232h-157q82 142 117 242q40 113 40 229q0 115 -37.5 227t-119.5 249h157q91 -119 139 -238t48 -241zM315 348q0 120 -45 233t-132 226h-112q70 -117 104 -222q38 -116 38 -234t-38 -231q-31 -93 -104 -220h112q90 122 131 220
q46 111 46 228z" />
    <glyph glyph-name="asterisk" unicode="*" horiz-adv-x="424" 
d="M420 535l-100 -33l70 -73l-112 -90l-65 86l-61 -89l-111 86l66 79l-102 33l45 130l97 -42v106h133v-104l91 43zM284 511l110 36l-34 93l-100 -48v116h-93v-116l-105 45l-31 -90l110 -36l-71 -86l77 -60l65 94l70 -92l78 64z" />
    <glyph glyph-name="plus" unicode="+" horiz-adv-x="622" 
d="M607 300h-222v-220h-148v220h-222v138h222v222h148v-222h222v-138zM365 320h222v98h-222v222h-108v-222h-222v-98h222v-220h108v220z" />
    <glyph glyph-name="comma" unicode="," 
d="M30 0v183h200v-169q0 -70 -57 -122t-143 -52v99q33 8 51.5 23.5t23.5 37.5h-75zM50 163v-143h81q-11 -43 -31.5 -66.5t-49.5 -30.5v-61q66 0 113 45t47 107v149h-160z" />
    <glyph glyph-name="hyphen" unicode="-" horiz-adv-x="380" 
d="M375 248h-370v150h370v-150zM25 268h330v110h-330v-110z" />
    <glyph glyph-name="period" unicode="." 
d="M230 0h-200v183h200v-183zM50 20h160v143h-160v-143z" />
    <glyph glyph-name="slash" unicode="/" horiz-adv-x="330" 
d="M360 748l-263 -768h-127l262 768h128zM83 0l249 728h-86l-248 -728h85z" />
    <glyph glyph-name="zero" unicode="0" horiz-adv-x="560" 
d="M277 -20q-139 0 -213 123q-61 102 -61 243q0 136 66 235q77 116 209 116t209 -114q67 -100 67 -237q0 -139 -64 -242q-77 -124 -213 -124zM278 141q47 0 64 55q12 38 12 112v79q0 65 -13 100q-18 49 -63 49q-43 0 -61 -49q-14 -37 -14 -100v-81q0 -96 19 -130.5t56 -34.5
zM277 0q126 0 197 115q60 98 60 231q0 132 -62 225q-71 106 -194 106t-194 -107q-61 -92 -61 -224q0 -138 55 -231q68 -115 199 -115zM278 121q-58 0 -80 64q-15 43 -15 121v81q0 91 28 133q24 36 67 36q55 0 79 -59q17 -41 17 -110v-79q0 -78 -15 -121q-23 -66 -81 -66z
" />
    <glyph glyph-name="one" unicode="1" horiz-adv-x="560" 
d="M235 0v449h-168v138h72q47 0 85 32q43 36 43 88h156v-707h-188zM255 469v-449h148v667h-117q0 -48 -48.5 -84t-98.5 -36h-52v-98h168z" />
    <glyph glyph-name="two" unicode="2" horiz-adv-x="560" 
d="M245 158h296v-158h-528v78q0 86 87 162q2 2 163 115q89 63 89 111q0 33 -17 55q-20 26 -56 26q-39 0 -57.5 -33.5t-18.5 -91.5h-190q0 128 72.5 206.5t193.5 78.5q110 0 187 -56q86 -63 86 -170q0 -114 -115 -194zM521 20v118h-318v9q50 49 148.5 111t126.5 91
q54 55 54 132q0 99 -78 155q-71 51 -175 51q-113 0 -179.5 -68.5t-66.5 -176.5h150q0 50 22 84q26 41 74 41q44 0 70 -33q23 -30 23 -68q0 -58 -87 -122l-163 -115q-89 -74 -89 -151v-58h488z" />
    <glyph glyph-name="three" unicode="3" horiz-adv-x="560" 
d="M211 287v140h49q37 0 57 17t20 45q0 26 -17 44t-45 18q-35 0 -55 -21.5t-20 -70.5h-178q0 121 74 187q68 61 179 61q105 0 175 -49q82 -57 82 -161q0 -39 -25 -76t-55 -53l1 -3q34 -7 68 -47q40 -47 40 -99q0 -110 -88 -173q-79 -56 -198 -56q-111 0 -184 64
q-81 71 -81 197h182q0 -51 22.5 -77t59.5 -26q35 0 61 20t26 52q0 33 -28.5 50t-72.5 17h-49zM231 407v-100h29q52 0 88.5 -24.5t36.5 -62.5q0 -40 -34.5 -66t-76.5 -26t-72 30t-30 73h-138q0 -101 71 -163q67 -58 170 -58q114 0 186 50q80 56 80 159q0 44 -30 83
q-33 44 -90 63q48 27 71 64q20 32 20 68q0 94 -73 145q-65 45 -164 45q-98 0 -163.5 -58.5t-65.5 -149.5h134q0 41 27.5 66.5t67.5 25.5q34 0 60 -25t26 -57q0 -34 -29 -58t-72 -24h-29z" />
    <glyph glyph-name="four" unicode="4" horiz-adv-x="560" 
d="M290 0v140h-290v159l263 398h217v-399h80v-158h-80v-140h-190zM290 298v186l-125 -186h125zM310 160v-140h150v140h80v118h-80v399h-186l-254 -384v-133h290zM310 278h-183l181 268z" />
    <glyph glyph-name="five" unicode="5" horiz-adv-x="560" 
d="M78 697h448v-148h-303l-8 -83q17 11 39 15.5t47 4.5q99 0 176 -74t77 -171q0 -110 -86 -182q-82 -69 -197 -69q-109 0 -182 61q-77 64 -87 174h187q6 -38 28.5 -57.5t54.5 -19.5q36 0 60 27t24 66q0 32 -26.5 58.5t-59.5 26.5q-46 0 -72 -34h-177zM506 677h-411l-51 -365
h144q11 14 34.5 24t47.5 10q39 0 72.5 -33.5t33.5 -71.5q0 -44 -30.5 -78.5t-73.5 -34.5q-35 0 -65.5 22.5t-34.5 54.5h-148q7 -88 76 -141.5t171 -53.5q108 0 185.5 64.5t77.5 166.5q0 89 -70 157t-163 68q-24 0 -48 -7.5t-62 -31.5l14 142h301v108z" />
    <glyph glyph-name="six" unicode="6" horiz-adv-x="560" 
d="M284 -20q-139 0 -211 102q-64 90 -64 234q0 156 61 258q74 123 215 123q116 0 185.5 -51.5t77.5 -146.5h-190q0 20 -23 35t-51 15q-34 0 -54.5 -27.5t-20.5 -74.5q41 27 99 27q102 0 171 -70t69 -174q0 -103 -74.5 -176.5t-189.5 -73.5zM284 139q32 0 53 26t21 61
q0 39 -20.5 64.5t-53.5 25.5t-54 -25.5t-21 -62.5t21 -63t54 -26zM284 0q108 0 176 66t68 164t-62 161t-158 63q-29 0 -60 -10t-59 -34q0 77 26.5 118t68.5 41q31 0 62.5 -17.5t31.5 -32.5h150q-8 66 -70 110q-67 48 -173 48q-125 0 -195 -114q-61 -100 -61 -247
q0 -138 58 -221q67 -95 197 -95zM284 119q-40 0 -67.5 32.5t-27.5 76.5q0 42 27.5 75t67.5 33q39 0 66.5 -32.5t27.5 -77.5q0 -43 -27 -75t-67 -32z" />
    <glyph glyph-name="seven" unicode="7" horiz-adv-x="560" 
d="M3 540v157h550v-136q-118 -124 -180 -255q-69 -147 -69 -306h-201q16 154 70.5 294.5t143.5 243.5zM23 677v-117h335q-105 -121 -165 -269q-52 -129 -68 -271h160q0 149 69 295q62 132 179 254v108h-510z" />
    <glyph glyph-name="eight" unicode="8" horiz-adv-x="560" 
d="M279 -10q-124 0 -201.5 60.5t-77.5 161.5q0 55 34 102.5t75 56.5q-34 10 -61.5 52.5t-27.5 87.5q0 86 75 141t184 55t184 -55t75 -141q0 -42 -26 -83t-60 -57q34 -10 70 -60.5t36 -98.5q0 -99 -86 -163q-80 -59 -193 -59zM279 432q28 0 48.5 17.5t20.5 44.5
q0 26 -20.5 42.5t-48.5 16.5t-48.5 -16t-20.5 -43q0 -28 20 -45t49 -17zM279 146q40 0 60.5 21.5t20.5 53.5q0 30 -23.5 50.5t-57.5 20.5q-33 0 -57 -21t-24 -51q0 -33 20 -53.5t61 -20.5zM279 10q108 0 181 53q78 57 78 149q0 48 -29 90q-33 48 -91 68q49 24 76 65
q24 36 24 76q0 78 -67.5 127t-171.5 49t-171.5 -48.5t-67.5 -127.5q0 -42 25 -77q29 -39 85 -62q-64 -19 -97 -63.5t-33 -96.5q0 -94 70 -148t189 -54zM279 412q-35 0 -62 23.5t-27 58.5q0 34 28 56.5t61 22.5q34 0 61.5 -22t27.5 -57q0 -34 -27 -58t-62 -24zM279 126
q-47 0 -74 28t-27 66q0 37 30.5 64.5t70.5 27.5t70.5 -27.5t30.5 -63.5q0 -39 -25 -65q-29 -30 -76 -30z" />
    <glyph glyph-name="nine" unicode="9" horiz-adv-x="560" 
d="M257 -10q-98 0 -166 48q-76 54 -76 148h182q6 -19 22.5 -28.5t38.5 -9.5q34 0 57.5 26.5t29.5 63.5q-19 -13 -46.5 -19t-59.5 -6q-99 0 -168 68t-69 168q0 102 66 176q74 82 196 82q139 0 213 -95q68 -88 68 -239q0 -166 -64 -266q-75 -117 -224 -117zM264 373
q38 0 59.5 24.5t21.5 60.5q0 38 -21 63.5t-60 25.5q-37 0 -58.5 -25.5t-21.5 -63.5q0 -35 24 -60t56 -25zM257 10q139 0 209 112q59 95 59 251q0 145 -64 227q-68 87 -197 87q-109 0 -178 -74q-64 -69 -64 -164q0 -90 63 -153t154 -63q33 0 61 9t72 38q0 -71 -33 -111.5
t-81 -40.5q-25 0 -48 10.5t-28 27.5h-147q8 -72 71.5 -114t150.5 -42zM264 353q-42 0 -71 31t-29 74q0 48 24.5 78.5t75.5 30.5q48 0 76 -34q25 -30 25 -75q0 -43 -23 -72q-26 -33 -78 -33z" />
    <glyph glyph-name="colon" unicode=":" 
d="M230 347h-200v183h200v-183zM230 0h-200v183h200v-183zM50 367h160v143h-160v-143zM50 20h160v143h-160v-143z" />
    <glyph glyph-name="semicolon" unicode=";" 
d="M230 347h-200v183h200v-183zM30 0v183h200v-169q0 -70 -57 -122t-143 -52v99q33 8 51.5 23.5t23.5 37.5h-75zM50 367h160v143h-160v-143zM50 163v-143h81q-11 -43 -31.5 -66.5t-49.5 -30.5v-61q66 0 113 45t47 107v149h-160z" />
    <glyph glyph-name="less" unicode="&#x3c;" horiz-adv-x="660" 
d="M640 13l-620 220v128l620 220v-142l-391 -143l391 -141v-142zM40 247l580 -206v100l-430 155l430 157v100l-580 -206v-100z" />
    <glyph glyph-name="equal" unicode="=" horiz-adv-x="622" 
d="M612 390h-592v129h592v-129zM612 210h-592v129h592v-129zM40 410h552v89h-552v-89zM40 230h552v89h-552v-89z" />
    <glyph glyph-name="greater" unicode="&#x3e;" horiz-adv-x="660" 
d="M640 233l-620 -220v142l391 141l-391 143v142l620 -220v-128zM40 41l580 206v100l-580 206v-100l430 -157l-430 -155v-100z" />
    <glyph glyph-name="question" unicode="?" horiz-adv-x="560" 
d="M364 223h-176v57q0 53 79 125t79 115q0 26 -20.5 42.5t-50.5 16.5q-36 0 -58 -29t-22 -79h-190q0 133 77 207q73 70 191 70q119 0 196 -62t77 -166q0 -57 -47 -105l-87 -79q-48 -51 -48 -113zM377 0h-200v183h200v-183zM208 243h136q0 78 91 149t91 128q0 96 -70 152
t-183 56q-111 0 -179.5 -62.5t-68.5 -174.5h150q0 42 28.5 75t71.5 33q37 0 64 -22.5t27 -56.5q0 -54 -79 -126t-79 -114v-37zM197 20h160v143h-160v-143z" />
    <glyph glyph-name="at" unicode="@" horiz-adv-x="834" 
d="M519 520l11 35h131l-60 -248q-2 -8 -2 -12q0 -33 38 -33q41 0 69 44.5t28 108.5q0 109 -88 186t-214 77q-132 0 -225 -95t-93 -231q0 -126 97 -214t236 -88q66 0 136 27t101 65h89q-47 -66 -147.5 -114t-194.5 -48q-168 0 -291.5 113t-123.5 272t125 271t304 112
q156 0 265.5 -92t109.5 -224q0 -120 -72 -205t-174 -85q-25 0 -48 13q-30 17 -30 45q-24 -29 -66 -45q-34 -13 -62 -13q-74 0 -126.5 52.5t-52.5 127.5q0 101 68.5 173.5t163.5 72.5q33 0 58 -10t40 -38zM489 386q4 18 -14 40t-45 22q-45 0 -73 -45q-24 -38 -24 -78
q0 -27 15 -45t39 -18q43 0 73 42q23 33 29 82zM545 535l-21 -66q-26 48 -53 66q-20 13 -50 13q-88 0 -150 -65t-62 -161q0 -68 45 -114t114 -46q39 0 78 26q31 21 66 63q0 -50 23 -73q16 -16 39 -16q96 0 161 77t65 193q0 124 -102 210t-253 86q-172 0 -290.5 -105.5
t-118.5 -257.5t116.5 -258.5t278.5 -106.5q85 0 179.5 40t123.5 82h-41q-30 -37 -103 -64.5t-143 -27.5q-144 0 -248.5 95t-104.5 227q0 141 100.5 243.5t237.5 102.5q132 0 227 -83t95 -200q0 -69 -34.5 -121t-82.5 -52q-23 0 -40 17t-17 39q0 4 2 14l54 223h-91zM509 384
q-8 -72 -51 -111q-34 -31 -71 -31q-30 0 -52 25t-22 58q0 45 28 89q34 54 89 54q34 0 60 -32q23 -29 19 -52z" />
    <glyph glyph-name="A" unicode="A" horiz-adv-x="724" 
d="M-9 0l269 728h206l269 -728h-215l-43 141h-228l-43 -141h-215zM428 289l-63 202l-69 -202h132zM274 708l-254 -688h171l43 141h258l43 -141h171l-254 688h-178zM455 269h-187l96 286z" />
    <glyph glyph-name="B" unicode="B" horiz-adv-x="715" 
d="M45 0v728h379q97 0 163 -60t66 -147q0 -40 -25.5 -83t-63.5 -63q54 -21 91 -66.5t37 -91.5q0 -90 -64.5 -153.5t-159.5 -63.5h-423zM245 560v-109h148q24 0 42 16t18 39t-17.5 38.5t-42.5 15.5h-148zM245 303v-135h167q31 0 51.5 19.5t20.5 48.5q0 27 -21 47t-51 20h-167
zM65 708v-688h403q84 0 144 58t60 140q0 43 -42.5 88.5t-103.5 65.5q45 21 76 63.5t31 84.5q0 80 -60 134t-149 54h-359zM225 431v149h168q34 0 57 -21t23 -52t-22.5 -53.5t-57.5 -22.5h-168zM225 148v175h187q39 0 65.5 -24.5t26.5 -61.5t-26 -63t-66 -26h-187z" />
    <glyph glyph-name="C" unicode="C" horiz-adv-x="733" 
d="M378 -20q-168 0 -263.5 106t-95.5 278q0 162 93 270q98 114 258 114q147 0 240 -76q100 -81 100 -222h-199q-9 65 -46.5 97.5t-93.5 32.5q-77 0 -114 -70q-30 -56 -30 -144q0 -93 26 -146q35 -72 116 -72q57 0 91.5 33.5t50.5 97.5h199q0 -151 -100 -230
q-88 -69 -232 -69zM378 0q131 0 212 62q88 68 100 197h-163q-14 -57 -53 -92q-43 -39 -105 -39q-92 0 -132 81q-30 60 -30 157q0 92 34 155q43 79 130 79q60 0 104.5 -35t52.5 -95h162q0 119 -90.5 188.5t-229.5 69.5q-152 0 -244 -107q-87 -102 -87 -257q0 -166 87 -263
q91 -101 252 -101z" />
    <glyph glyph-name="D" unicode="D" horiz-adv-x="733" 
d="M45 0v728h336q157 0 246 -115q78 -101 78 -249q0 -146 -86 -251q-93 -113 -238 -113h-336zM245 560v-392h117q71 0 106 61q29 51 29 135q0 73 -29 127q-37 69 -106 69h-117zM65 708v-688h316q137 0 223 105q81 99 81 239q0 142 -72 236q-83 108 -232 108h-316zM225 148
v432h137q78 0 121 -77q34 -61 34 -139q0 -89 -32 -145q-41 -71 -123 -71h-137z" />
    <glyph glyph-name="E" unicode="E" horiz-adv-x="688" 
d="M45 0v728h594v-168h-394v-103h364v-168h-364v-121h414v-168h-614zM65 708v-688h574v128h-414v161h364v128h-364v143h394v128h-554z" />
    <glyph glyph-name="F" unicode="F" horiz-adv-x="602" 
d="M50 0v728h542v-168h-342v-113h316v-168h-316v-279h-200zM70 708v-688h160v279h316v128h-316v153h342v128h-502z" />
    <glyph glyph-name="G" unicode="G" horiz-adv-x="778" 
d="M743 410v-410h-147l-11 48q-42 -35 -87.5 -51.5t-106.5 -16.5q-156 0 -263.5 112.5t-107.5 267.5q0 166 99 275q104 114 272 114q133 0 228 -69q105 -76 124 -210h-198q-46 111 -154 111q-85 0 -128 -72q-35 -59 -35 -149q0 -84 41 -145q45 -67 122 -67q53 0 98.5 26.5
t63.5 67.5h-162v168h352zM723 20v370h-312v-128h172q-22 -64 -80 -101q-52 -33 -112 -33q-84 0 -136 75q-47 68 -47 157q0 94 39 159q49 82 144 82q55 0 101 -31t66 -80h162q-16 111 -112 177q-91 62 -217 62q-161 0 -258 -106q-93 -102 -93 -263q0 -149 100.5 -254.5
t250.5 -105.5q62 0 104.5 17t101.5 67l15 -64h111z" />
    <glyph glyph-name="H" unicode="H" horiz-adv-x="741" 
d="M45 0v728h200v-262h251v262h200v-728h-200v298h-251v-298h-200zM65 708v-688h160v298h291v-298h160v688h-160v-262h-291v262h-160z" />
    <glyph glyph-name="I" unicode="I" horiz-adv-x="290" 
d="M45 0v728h200v-728h-200zM65 708v-688h160v688h-160z" />
    <glyph glyph-name="J" unicode="J" horiz-adv-x="549" 
d="M310 728h200v-537q0 -96 -79 -156q-73 -55 -175 -55t-179 59.5t-77 142.5v116h200v-97q0 -28 19 -42q15 -11 37 -11q21 0 37.5 14.5t16.5 38.5v527zM490 708h-160v-507q0 -30 -23.5 -51.5t-50.5 -21.5t-48 15q-28 20 -28 58v77h-160v-96q0 -75 69.5 -128.5t166.5 -53.5
q96 0 162 49q72 54 72 142v517z" />
    <glyph glyph-name="K" unicode="K" horiz-adv-x="731" 
d="M45 0v728h200v-253l234 253h253l-313 -308l327 -420h-242l-214 293l-45 -44v-249h-200zM65 708v-688h160v237l68 66l221 -303h191l-313 402l291 286h-195l-260 -283l-3 283h-160z" />
    <glyph glyph-name="L" unicode="L" horiz-adv-x="575" 
d="M45 0v728h200v-560h320v-168h-520zM65 708v-688h480v128h-320v560h-160z" />
    <glyph glyph-name="M" unicode="M" horiz-adv-x="860" 
d="M45 0v728h248l141 -483l143 483h248v-728h-200v402l-104 -402h-172l-102 402l-2 -402h-200zM65 708v-688h160v546l140 -546h140l138 546l2 -546h160v688h-213l-156 -534l-158 534h-213z" />
    <glyph glyph-name="N" unicode="N" horiz-adv-x="719" 
d="M45 0v728h201l226 -395l2 395h200v-728h-200l-227 402l-2 -402h-200zM65 708v-688h160v459l261 -459h168v688h-160v-450l-260 450h-169z" />
    <glyph glyph-name="O" unicode="O" horiz-adv-x="784" 
d="M392 -20q-174 0 -276 113q-96 106 -96 271q0 158 97 267q104 117 274 117q171 0 275 -113q98 -107 98 -271q0 -165 -96 -271q-102 -113 -276 -113zM393 148q85 0 127 64q36 55 36 152q0 96 -34 150q-41 66 -129 66q-86 0 -128 -64q-37 -56 -37 -152t37 -152
q42 -64 128 -64zM392 0q166 0 262 106q90 99 90 258q0 158 -92 258q-97 106 -261 106q-162 0 -260 -109q-91 -102 -91 -255q0 -158 90 -258q96 -106 262 -106zM393 128q-95 0 -143 72q-42 62 -42 164q0 101 41 163q49 73 144 73q96 0 143 -74q40 -63 40 -162
q0 -101 -41 -163q-48 -73 -142 -73z" />
    <glyph glyph-name="P" unicode="P" horiz-adv-x="663" 
d="M45 0v728h363q104 0 174.5 -73.5t70.5 -175.5t-70 -173t-181 -71h-157v-235h-200zM245 560v-157h121q31 0 56 23t25 53q0 34 -21.5 57.5t-56.5 23.5h-124zM65 708v-688h160v235h177q103 0 167 64t64 160t-63.5 162.5t-161.5 66.5h-343zM225 383v197h144q41 0 69.5 -30.5
t28.5 -70.5q0 -36 -32 -66t-69 -30h-141z" />
    <glyph glyph-name="Q" unicode="Q" horiz-adv-x="784" 
d="M697 127l73 -73l-110 -110l-79 79q-39 -21 -85.5 -32t-100.5 -11q-174 0 -276 113q-96 106 -96 271q0 158 97 267q104 117 274 117q171 0 275 -113q98 -107 98 -271q0 -137 -70 -237zM380 224l110 110l59 -59q10 39 10 89q0 96 -34 150q-41 66 -129 66q-86 0 -128 -64
q-37 -56 -37 -152t37 -152q42 -64 128 -64q19 0 28 1t25 6zM742 54l-71 71q39 56 57.5 114.5t18.5 124.5q0 158 -92 258q-97 106 -261 106q-162 0 -260 -109q-91 -102 -91 -255q0 -158 90 -258q96 -106 262 -106q53 0 97.5 11t92.5 37l75 -76zM490 306l-82 -82l79 -78
q-35 -11 -54 -14.5t-37 -3.5q-95 0 -143 72q-42 62 -42 164q0 101 41 163q49 73 144 73q96 0 143 -74q40 -63 40 -162q0 -29 -3.5 -54t-15.5 -74z" />
    <glyph glyph-name="R" unicode="R" horiz-adv-x="711" 
d="M45 0v728h380q106 0 181 -64t75 -156q0 -125 -95 -167v-4q31 -11 50 -40.5t19 -58.5v-136q0 -36 6 -55.5t25 -46.5h-204q-16 28 -21.5 50.5t-5.5 52.5v85q0 26 -18 45t-45 19h-147v-252h-200zM245 560v-154h152q32 0 55 22t23 55q0 32 -22.5 54.5t-55.5 22.5h-152z
M65 708v-688h160v252h167q32 0 57.5 -25.5t25.5 -58.5v-85q0 -51 19 -83h153q-2 3 -7 29t-5 53v134q0 35 -22 61q-25 29 -73 40v4q55 10 88 54t33 113q0 85 -67.5 142.5t-168.5 57.5h-360zM225 386v194h172q38 0 68 -29t30 -68q0 -38 -29.5 -67.5t-68.5 -29.5h-172z" />
    <glyph glyph-name="S" unicode="S" horiz-adv-x="694" 
d="M24 235h200q15 -97 119 -97q50 0 80 14q37 17 37 51q0 44 -110 71q-159 39 -204 63q-110 59 -110 183q0 102 83.5 165t208.5 63q130 0 222.5 -74.5t92.5 -180.5h-200q0 41 -32 69t-76 28t-69.5 -18.5t-25.5 -51.5q0 -52 111 -81q182 -48 206 -59q111 -53 111 -164
q0 -125 -104 -186q-85 -50 -223 -50q-135 0 -226 71.5t-91 183.5zM207 215h-163q0 -90 85 -152.5t212 -62.5q134 0 212 45q95 55 95 171q0 99 -111 147l-206 60q-111 34 -111 97q0 40 33 65t82 25t88.5 -31t39.5 -66h160q0 85 -86 150t-209 65q-120 0 -196 -56.5t-76 -151.5
q0 -111 110 -166q26 -13 204 -64q110 -32 110 -87q0 -43 -45 -66q-38 -19 -92 -19q-56 0 -93 27.5t-43 69.5z" />
    <glyph glyph-name="T" unicode="T" horiz-adv-x="600" 
d="M200 0v560h-200v168h600v-168h-200v-560h-200zM220 580v-560h160v560h200v128h-560v-128h200z" />
    <glyph glyph-name="U" unicode="U" horiz-adv-x="691" 
d="M36 728h200v-494q0 -38 31.5 -62t76.5 -24q43 0 78 25t35 61v494h200v-494q0 -108 -90 -181t-222 -73q-128 0 -218.5 73t-90.5 181v494zM216 708h-160v-474q0 -101 83.5 -167.5t205.5 -66.5q126 0 209 67t83 167v474h-160v-474q0 -44 -42 -75t-91 -31q-51 0 -89.5 30
t-38.5 76v474z" />
    <glyph glyph-name="V" unicode="V" horiz-adv-x="689" 
d="M470 728h229l-276 -728h-175l-258 728h219l126 -442zM485 708l-149 -494l-142 494h-176l244 -688h147l261 688h-185z" />
    <glyph glyph-name="W" unicode="W" horiz-adv-x="952" 
d="M378 728h196l85 -386l94 386h209l-221 -728h-176l-90 411l-92 -411h-177l-216 728h208l91 -386zM394 708l-102 -457l-110 457h-165l204 -688h146l105 484l109 -484h145l209 688h-166l-108 -457l-103 457h-164z" />
    <glyph glyph-name="X" unicode="X" horiz-adv-x="706" 
d="M356 508l129 220h226l-235 -360l237 -368h-228l-129 211l-131 -211h-228l244 368l-237 360h226zM496 708l-140 -240l-138 240h-177l224 -340l-231 -348h180l142 229l140 -229h180l-224 348l222 340h-178z" />
    <glyph glyph-name="Y" unicode="Y" horiz-adv-x="658" 
d="M229 0v270l-249 458h232l116 -263l118 263h232l-249 -458v-270h-200zM249 275v-255h160v255l235 433h-185l-129 -291l-131 291h-185z" />
    <glyph glyph-name="Z" unicode="Z" horiz-adv-x="658" 
d="M25 0v152l372 408h-363v168h599v-153l-354 -407h354v-168h-608zM45 144v-124h568v128h-378l378 434v126h-559v-128h388z" />
    <glyph glyph-name="bracketleft" unicode="[" horiz-adv-x="350" 
d="M40 -120v947h300v-142h-111v-663h111v-142h-300zM60 807v-907h260v102h-111v703h111v102h-260z" />
    <glyph glyph-name="backslash" unicode="\" horiz-adv-x="330" 
d="M233 -40l-263 767h128l262 -767h-127zM-2 707l249 -727h85l-248 727h-86z" />
    <glyph glyph-name="bracketright" unicode="]" horiz-adv-x="350" 
d="M120 22v664h-110v142h299v-948h-299v142h110zM140 706v-704h-110v-102h259v908h-259v-102h110z" />
    <glyph glyph-name="asciicircum" unicode="^" horiz-adv-x="474" 
d="M167 729h140l181 -270h-169l-81 131l-83 -131h-169zM296 709h-118l-155 -230h121l94 149l92 -149h121z" />
    <glyph glyph-name="underscore" unicode="_" horiz-adv-x="548" 
d="M0 -142v70h548v-70h-548zM20 -92v-30h508v30h-508z" />
    <glyph glyph-name="grave" unicode="`" 
d="M230 386h-200v169q0 70 57 122t143 52v-99q-33 -8 -51.5 -23.5t-23.5 -37.5h75v-183zM50 406h160v143h-81q11 43 31.5 66.5t49.5 30.5v61q-66 0 -113 -45t-47 -107v-149z" />
    <glyph glyph-name="a" unicode="a" horiz-adv-x="580" 
d="M223 344h-190q0 80 75 138t177 58q106 0 177.5 -48.5t71.5 -120.5v-255q0 -36 7.5 -62t27.5 -54h-204q-9 9 -14 18.5t-7 18.5q-32 -23 -69 -35t-83 -12q-83 0 -132 46t-49 118q0 58 42.5 96.5t128 51t109.5 19.5q53 15 53 42q0 14 -17.5 25.5t-43.5 11.5
q-25 0 -42.5 -16.5t-17.5 -39.5zM344 191v61q-13 -8 -64 -24q-77 -25 -77 -55q0 -23 22 -31q11 -4 30 -4q29 0 53.5 13.5t35.5 39.5zM53 364h150q0 16 25.5 36t54.5 20q31 0 56 -18t25 -39q0 -38 -61 -58q-33 -11 -116 -23t-119.5 -44.5t-36.5 -83.5q0 -65 42.5 -104.5
t118.5 -39.5q47 0 81.5 12.5t83.5 48.5q3 -16 7 -30.5t10 -20.5h155q-5 8 -10 34.5t-5 61.5v255q0 65 -64 107t-165 42q-95 0 -163.5 -47.5t-68.5 -108.5zM364 287v-100q-14 -34 -45 -51.5t-64 -17.5q-29 0 -48 12q-24 15 -24 43q0 39 61 64z" />
    <glyph glyph-name="b" unicode="b" horiz-adv-x="616" 
d="M35 0v727h190v-253q22 24 60 45t73 21q106 0 174.5 -75.5t68.5 -184.5q0 -123 -67.5 -206.5t-176.5 -83.5q-40 0 -74 17t-58 45v-52h-190zM225 282v-35q0 -44 25.5 -72.5t62.5 -28.5q39 0 66.5 36.5t27.5 87.5q0 45 -27.5 77.5t-65.5 32.5q-37 0 -63 -28t-26 -70zM55 707
v-687h150v90q25 -45 65 -72.5t87 -27.5q102 0 163 76t61 194q0 104 -62 172t-161 68q-40 0 -81 -26.5t-70 -72.5l-2 286h-150zM205 247v35q0 47 32.5 82.5t76.5 35.5q45 0 79 -40t34 -90q0 -57 -33.5 -100.5t-80.5 -43.5q-43 0 -75.5 35.5t-32.5 85.5z" />
    <glyph glyph-name="c" unicode="c" horiz-adv-x="572" 
d="M294 -10q-123 0 -201 79t-78 204q0 111 81 189t197 78q109 0 184 -62q80 -66 80 -168h-189q0 39 -21 56.5t-53 17.5q-43 0 -64 -30.5t-21 -79.5q0 -56 21 -92t64 -36q29 0 51.5 20.5t22.5 59.5h189q0 -110 -81 -176q-74 -60 -182 -60zM294 10q99 0 169 52q74 55 74 144
h-149q0 -34 -29.5 -57t-64.5 -23q-50 0 -77.5 44t-27.5 104q0 55 26.5 92.5t78.5 37.5q35 0 64.5 -19.5t29.5 -54.5h149q0 82 -70.5 136t-173.5 54q-109 0 -183.5 -71.5t-74.5 -175.5q0 -119 71 -191t188 -72z" />
    <glyph glyph-name="d" unicode="d" horiz-adv-x="616" 
d="M391 727h190v-727h-190v54q-15 -25 -53 -44.5t-79 -19.5q-109 0 -176.5 83.5t-67.5 206.5q0 109 68.5 184.5t174.5 75.5q34 0 71.5 -19t61.5 -44v250zM391 247v35q0 41 -25.5 69.5t-62.5 28.5q-39 0 -66.5 -32.5t-27.5 -77.5q0 -51 27.5 -87.5t66.5 -36.5q37 0 62.5 28.5
t25.5 72.5zM561 707h-150v-280q-22 39 -66.5 66t-86.5 27q-98 0 -160.5 -68.5t-62.5 -171.5q0 -117 61 -193.5t163 -76.5q45 0 87 29t63 73l2 -92h150v687zM411 282v-35q0 -50 -32.5 -85.5t-75.5 -35.5q-46 0 -80 44t-34 100q0 51 34 90.5t80 39.5q44 0 76 -35t32 -83z" />
    <glyph glyph-name="e" unicode="e" horiz-adv-x="590" 
d="M577 220h-370q0 -39 25.5 -66.5t62.5 -27.5q29 0 53 16t32 40h190q-11 -80 -91 -136t-184 -56q-116 0 -198 83t-82 200q0 111 81.5 189t198.5 78t199.5 -75.5t82.5 -182.5v-62zM207 336h173q-4 26 -30.5 47t-58.5 21q-31 0 -56 -20t-28 -48zM187 240h370v42
q0 100 -75 169t-187 69q-111 0 -185.5 -71.5t-74.5 -175.5q0 -111 75 -187t185 -76q96 0 170 47t82 105h-152q-6 -19 -37.5 -37.5t-62.5 -18.5q-45 0 -76.5 37.5t-31.5 96.5zM403 316h-218q5 48 36 78t70 30q43 0 75 -26q37 -30 37 -82z" />
    <glyph glyph-name="f" unicode="f" horiz-adv-x="359" 
d="M69 0v390h-69v140h69v29q0 70 47.5 119.5t115.5 49.5h117v-146h-53q-16 0 -26.5 -10.5t-10.5 -25.5v-16h90v-140h-90v-390h-190zM89 410v-390h150v390h90v100h-90v36q0 21 16.5 38.5t40.5 17.5h33v106h-97q-62 0 -102.5 -42.5t-40.5 -106.5v-49h-69v-100h69z" />
    <glyph glyph-name="g" unicode="g" horiz-adv-x="612" 
d="M387 530h190v-530q0 -102 -82 -165q-76 -58 -187 -58q-101 0 -164 34q-87 47 -109 155h194q6 -24 28 -35.5t52 -11.5q31 0 54.5 22.5t23.5 58.5v44q-26 -30 -65 -42t-85 -12q-102 0 -165 87q-57 79 -57 183q0 112 60 191q68 89 183 89q38 0 73 -14.5t56 -43.5v48z
M387 217v79q0 31 -23.5 57.5t-54.5 26.5q-46 0 -73 -34t-27 -83q0 -51 24 -86q28 -41 75 -41q33 0 56 24t23 57zM557 510h-150v-85q-28 50 -74 75q-37 20 -75 20q-106 0 -168 -81q-55 -72 -55 -179q0 -100 51 -171q56 -79 151 -79q61 0 98.5 20.5t69.5 59.5l2 -90
q0 -42 -29.5 -71.5t-68.5 -29.5q-35 0 -63 13t-33 34h-154q17 -83 95 -120q61 -29 154 -29q105 0 174 52q75 56 75 151v510zM407 296v-79q0 -40 -29.5 -70.5t-69.5 -30.5q-55 0 -89 48q-30 43 -30 99q0 55 32.5 96t87.5 41q39 0 68.5 -33t29.5 -71z" />
    <glyph glyph-name="h" unicode="h" horiz-adv-x="587" 
d="M35 0v728h190v-246q21 24 65 41t77 17q79 0 134.5 -45.5t55.5 -110.5v-384h-190v335q0 21 -16 35t-39 14q-25 0 -48.5 -14.5t-38.5 -37.5v-332h-190zM55 708v-688h150v316q18 31 46 49.5t61 18.5q29 0 52 -21t23 -48v-315h150v364q0 58 -48 97t-122 39q-36 0 -75 -18
q-53 -24 -85 -72l-2 278h-150z" />
    <glyph glyph-name="i" unicode="i" 
d="M225 576h-190v172h190v-172zM35 0v530h190v-530h-190zM55 596h150v132h-150v-132zM55 510v-490h150v490h-150z" />
    <glyph glyph-name="j" unicode="j" 
d="M225 576h-190v172h190v-172zM35 530h190v-550q0 -84 -55.5 -143.5t-134.5 -59.5q-32 0 -56 2.5t-43 13.5v156q13 -6 30 -8t30 -2q17 0 28 14.5t11 36.5v540zM55 596h150v132h-150v-132zM205 510h-150v-520q0 -27 -17 -49t-42 -22h-40v-114q7 -4 32.5 -6t46.5 -2
q72 0 121 52t49 131v530z" />
    <glyph glyph-name="k" unicode="k" horiz-adv-x="580" 
d="M35 0v728h190v-327l125 139h238l-197 -210l204 -330h-227l-111 195l-32 -33v-162h-190zM55 708v-688h150v150l56 58l119 -208h179l-193 313l176 187h-183l-154 -171v359h-150z" />
    <glyph glyph-name="l" unicode="l" 
d="M35 0v728h190v-728h-190zM55 708v-688h150v688h-150z" />
    <glyph glyph-name="m" unicode="m" horiz-adv-x="855" 
d="M35 0v530h190v-48q32 30 59.5 44t50.5 14q48 0 85.5 -14t64.5 -45q31 28 70 43.5t80 15.5q79 0 134.5 -45.5t55.5 -110.5v-384h-190v338q0 19 -13.5 32.5t-32.5 13.5t-37 -14q-13 -10 -27 -32v-338h-190v338q0 19 -13.5 32.5t-32.5 13.5t-37 -14q-13 -10 -27 -32v-338
h-190zM55 510v-490h150v324q16 24 35 40q25 20 49 20q25 0 45.5 -20.5t20.5 -45.5v-318h150v324q16 24 35 40q25 20 49 20q25 0 45.5 -20.5t20.5 -45.5v-318h150v364q0 58 -48 97t-122 39q-40 0 -75.5 -15.5t-76.5 -51.5q-33 37 -67 52t-81 15q-46 0 -128 -79l-2 69h-150z
" />
    <glyph glyph-name="n" unicode="n" horiz-adv-x="587" 
d="M35 0v530h190v-48q21 24 65 41t77 17q79 0 134.5 -45.5t55.5 -110.5v-384h-190v335q0 21 -16 35t-39 14q-25 0 -48.5 -14.5t-38.5 -37.5v-332h-190zM55 510v-490h150v318q19 28 48 47t59 19q29 0 52 -21t23 -48v-315h150v364q0 58 -48 97t-122 39q-43 0 -76 -14
q-52 -22 -84 -75l-2 79h-150z" />
    <glyph glyph-name="o" unicode="o" horiz-adv-x="616" 
d="M306 -10q-130 0 -213 76t-83 201q0 123 83 198t213 75q134 0 217 -74t83 -199q0 -123 -85 -200t-215 -77zM306 146q53 0 79.5 33.5t26.5 87.5q0 53 -27 85t-79 32q-49 0 -75.5 -32.5t-26.5 -84.5q0 -54 26 -87.5t76 -33.5zM306 10q123 0 201.5 70.5t78.5 186.5
q0 118 -76 185.5t-204 67.5q-125 0 -200.5 -68t-75.5 -185q0 -119 75.5 -188t200.5 -69zM306 126q-57 0 -89.5 40.5t-32.5 100.5q0 58 32.5 97.5t89.5 39.5q60 0 93 -38.5t33 -98.5t-30 -98q-34 -43 -96 -43z" />
    <glyph glyph-name="p" unicode="p" horiz-adv-x="612" 
d="M35 -212v742h190v-53q17 24 56.5 43.5t77.5 19.5q111 0 177 -88q59 -79 59 -188q0 -110 -59 -187q-67 -87 -178 -87q-39 0 -77.5 18.5t-55.5 40.5v-261h-190zM225 282v-34q0 -42 25 -72t62 -30q41 0 65 34.5t24 86.5q0 48 -24.5 80.5t-64.5 32.5q-36 0 -61.5 -28.5
t-25.5 -69.5zM55 510v-702h150v289q39 -48 75.5 -67.5t77.5 -19.5q103 0 163 78q54 71 54 176q0 104 -53 176q-59 80 -163 80q-41 0 -76 -20q-45 -26 -76 -80l-2 90h-150zM205 248v34q0 46 32 82t75 36q47 0 78 -40t31 -93q0 -56 -30 -98.5t-79 -42.5q-44 0 -75.5 36.5
t-31.5 85.5z" />
    <glyph glyph-name="q" unicode="q" horiz-adv-x="613" 
d="M388 530h190v-742h-190v252q-17 -21 -52 -35.5t-81 -14.5q-107 0 -178 87q-67 82 -67 189q0 108 61 186q69 88 181 88q43 0 79 -18t57 -45v53zM388 231v68q-7 34 -33 57.5t-56 23.5q-49 0 -74 -36q-21 -30 -21 -78q0 -56 20 -85q24 -35 78 -35q32 0 57 25t29 60zM558 510
h-150v-81q-42 51 -83 73q-34 18 -73 18q-104 0 -166 -79q-56 -72 -56 -175q0 -102 60 -176q65 -80 165 -80q45 0 76 14q38 17 75 62l2 -278h150v702zM408 301v-71q-5 -41 -36.5 -72.5t-69.5 -31.5q-63 0 -93 43q-25 36 -25 97q0 52 26 89q32 45 89 45q36 0 68.5 -28.5
t40.5 -70.5z" />
    <glyph glyph-name="r" unicode="r" horiz-adv-x="384" 
d="M35 0v530h190v-48q12 21 40 39.5t54 18.5q32 0 66 -10v-176q-10 4 -30.5 8t-36.5 4q-35 0 -64 -25.5t-29 -67.5v-273h-190zM55 510v-490h150v253q0 50 34.5 81.5t78.5 31.5q14 0 26.5 -1t20.5 -4v134q-15 4 -26 4.5t-20 0.5q-27 0 -55 -23q-35 -29 -57 -84l-2 97h-150z
" />
    <glyph glyph-name="s" unicode="s" horiz-adv-x="550" 
d="M281 -10q-120 0 -192.5 53.5t-72.5 138.5h189q0 -22 22.5 -37t55.5 -15q28 0 45.5 9t17.5 27q0 20 -80 35q-107 20 -150 42q-82 42 -82 128q0 70 67.5 119.5t165.5 49.5q105 0 177.5 -51.5t72.5 -129.5h-177q-5 24 -24 33.5t-48 9.5q-21 0 -35 -11t-14 -26q0 -29 82 -41
q118 -18 152 -32q83 -35 83 -120q0 -90 -81 -139q-71 -43 -174 -43zM281 10q99 0 162 37q73 43 73 125q0 72 -82 102l-155.5 33t-79.5 58q0 21 21 39t48 18q32 0 58 -11t30 -32h140q0 56 -66 98.5t-163 42.5q-93 0 -153 -43t-60 -106q0 -74 80 -111q26 -12 150 -42
q82 -20 82 -52q0 -26 -25 -41t-58 -15q-35 0 -66 18t-31 34h-150q0 -65 66 -108.5t179 -43.5z" />
    <glyph glyph-name="t" unicode="t" horiz-adv-x="344" 
d="M69 390h-69v140h69v150h190v-150h81v-140h-81v-207q0 -10 7.5 -18.5t17.5 -8.5q17 0 28 2.5t28 14.5v-161q-29 -11 -64 -16.5t-65 -5.5q-61 0 -101.5 36.5t-40.5 92.5v271zM20 410h69v-291q0 -49 34 -79t88 -30q34 0 59.5 3.5t49.5 12.5v109q-5 0 -10 1h-26
q-16 0 -30.5 15.5t-14.5 31.5v227h81v100h-81v150h-150v-150h-69v-100z" />
    <glyph glyph-name="u" unicode="u" horiz-adv-x="590" 
d="M30 530h190v-321q0 -25 18 -44t44 -19q32 0 55 19t23 45v320h190v-530h-190v44q-15 -22 -54 -38t-77 -16q-83 0 -141 56t-58 136v348zM200 510h-150v-328q0 -74 51 -123t128 -49q46 0 78 16q43 22 71 74l2 -80h150v490h-150v-300q0 -33 -29.5 -58.5t-68.5 -25.5
q-32 0 -57 25t-25 58v301z" />
    <glyph glyph-name="v" unicode="v" horiz-adv-x="565" 
d="M370 530h204l-201 -530h-182l-201 530h204l87 -281zM385 510l-102 -329l-104 329h-160l186 -490h154l186 490h-160z" />
    <glyph glyph-name="w" unicode="w" horiz-adv-x="787" 
d="M303 530h179l52 -251l58 251h202l-162 -530h-192l-46 234l-49 -234h-191l-164 530h203l55 -251zM319 510l-69 -323l-73 323h-160l152 -490h160l63 311l64 -311h161l150 490h-159l-73 -325l-69 325h-147z" />
    <glyph glyph-name="x" unicode="x" horiz-adv-x="604" 
d="M303 406l77 124h225l-185 -258l190 -272h-235l-72 122l-72 -122h-236l194 273l-188 257h225zM391 510l-88 -142l-88 142h-175l174 -237l-180 -253h186l83 141l83 -141h186l-177 252l171 238h-175z" />
    <glyph glyph-name="y" unicode="y" horiz-adv-x="570" 
d="M362 530h218l-227 -635q-20 -53 -70.5 -85.5t-107.5 -32.5q-29 0 -47.5 4t-48.5 14v158q15 -9 31.5 -13.5t30.5 -4.5q19 0 30 11t18 34l10 30l-209 520h219l82 -285zM378 510l-83 -342l-101 342h-174l200 -499l-12 -37q-8 -26 -24.5 -42.5t-42.5 -16.5q-11 0 -25 0.5
t-17 2.5v-109q39 -12 76 -12q52 0 96.5 28.5t62.5 76.5l218 608h-174z" />
    <glyph glyph-name="z" unicode="z" horiz-adv-x="555" 
d="M15 0v140l260 242l-240 2v146h490v-133l-267 -249l277 -2v-146h-520zM35 131v-111h480v106h-308l298 280v104h-450v-106h271z" />
    <glyph glyph-name="braceleft" unicode="{" horiz-adv-x="380" 
d="M10 287v142h39q29 0 50 19t21 47v181q0 62 53.5 107t115.5 45h84v-142h-50q-15 0 -25.5 -11.5t-10.5 -25.5v-181q0 -36 -18 -68t-45 -44q27 -13 45 -43t18 -63v-192q0 -36 34 -36h52v-142h-91q-57 0 -107 40q-55 44 -55 104v199q0 28 -21 46t-50 18h-39zM30 409v-102h19
q34 0 62.5 -24.5t28.5 -59.5v-199q0 -51 47 -89q44 -35 95 -35h71v102h-32q-22 0 -38 16t-16 40v192q0 29 -19 54q-23 29 -72 53q48 21 71 51q20 26 20 60v181q0 21 17 39t39 18h30v102h-64q-56 0 -102.5 -38.5t-46.5 -93.5v-181q0 -34 -27 -60t-64 -26h-19z" />
    <glyph glyph-name="bar" unicode="|" horiz-adv-x="236" 
d="M45 -120v947h146v-947h-146zM65 807v-907h106v907h-106z" />
    <glyph glyph-name="braceright" unicode="}" horiz-adv-x="380" 
d="M354 429v-142h-39q-29 0 -50 -18t-21 -46v-199q0 -60 -52.5 -102t-109.5 -42h-91v142h52q34 0 34 36v192q0 34 19 63q16 25 44 43q-27 17 -45 45.5t-18 66.5v181q0 15 -10 26t-26 11h-50v142h84q63 0 116 -44.5t53 -107.5v-181q0 -28 20 -47t51 -19h39zM334 307v102h-19
q-36 0 -63.5 25.5t-27.5 60.5v181q0 55 -46.5 93.5t-102.5 38.5h-64v-102h30q22 0 39 -18t17 -39v-181q0 -34 18.5 -59t61.5 -53q-43 -28 -61.5 -52t-18.5 -54v-192q0 -23 -15.5 -39.5t-38.5 -16.5h-32v-102h71q52 0 95 34q47 37 47 90v199q0 35 28 59.5t63 24.5h19z" />
    <glyph glyph-name="asciitilde" unicode="~" horiz-adv-x="647" 
d="M494 530h149q0 -95 -49 -158q-57 -73 -161 -73q-75 0 -148 73q-35 35 -73 35q-34 0 -51.5 -31t-17.5 -77h-149q0 100 47 161q54 70 159 70q76 0 136 -54t89 -54q34 0 51.5 30t17.5 78zM623 510h-109q0 -39 -21 -70q-26 -38 -68 -38t-102 54t-123 54q-95 0 -144 -59
q-42 -51 -42 -132h109q0 36 22 69q26 39 67 39q55 0 108 -54t113 -54q93 0 145 62q45 54 45 129z" />
    <glyph glyph-name="quotesinglbase" unicode="&#x201a;" 
d="M30 0v183h200v-169q0 -70 -57 -122t-143 -52v99q33 8 51.5 23.5t23.5 37.5h-75zM50 163v-143h81q-6 -42 -27 -66t-54 -31v-61q65 6 112.5 49.5t47.5 102.5v149h-160z" />
    <glyph glyph-name="florin" unicode="&#x192;" horiz-adv-x="442" 
d="M121 390h-69l25 140h69l5 29q12 70 68.5 119.5t124.5 49.5h117l-26 -146h-53q-17 0 -29 -10.5t-14 -25.5l-3 -16h90l-25 -140h-90l-72 -410q-15 -83 -81.5 -143t-144.5 -60q-33 0 -56 2.5t-40 13.5l27 156q13 -6 29 -8t30 -2q16 0 30 15t18 36zM76 410h69l-74 -423
q-5 -27 -24.5 -47.5t-43.5 -20.5l-44 1l-20 -117q6 -4 26 -5t48 -1q74 0 133 53t73 133l75 427h90l18 100h-90l7 39q3 20 21.5 36.5t41.5 16.5h36l19 106h-93q-63 0 -112.5 -43t-60.5 -109l-8 -46h-69z" />
    <glyph glyph-name="quotedblbase" unicode="&#x201e;" horiz-adv-x="503" 
d="M273 0v183h200v-169q0 -70 -57 -122t-143 -52v99q33 8 51.5 23.5t23.5 37.5h-75zM30 0v183h200v-169q0 -70 -57 -122t-143 -52v99q33 8 51.5 23.5t23.5 37.5h-75zM293 163v-143h81q-11 -43 -31.5 -66.5t-49.5 -30.5v-61q66 0 113 45t47 107v149h-160zM50 163v-143h81
q-11 -43 -31.5 -66.5t-49.5 -30.5v-61q66 0 113 45t47 107v149h-160z" />
    <glyph glyph-name="ellipsis" unicode="&#x2026;" horiz-adv-x="918" 
d="M883 0h-200v183h200v-183zM559 0h-200v183h200v-183zM235 0h-200v183h200v-183zM703 20h160v143h-160v-143zM379 20h160v143h-160v-143zM55 20h160v143h-160v-143z" />
    <glyph glyph-name="dagger" unicode="&#x2020;" horiz-adv-x="474" 
d="M164 530v217h146v-217h164v-140h-164v-602h-146v602h-164v140h164zM184 727v-217h-164v-100h164v-602h106v602h164v100h-164v217h-106z" />
    <glyph glyph-name="daggerdbl" unicode="&#x2021;" horiz-adv-x="474" 
d="M164 530v217h146v-217h164v-140h-164v-94h164v-140h-164v-368h-146v368h-164v140h164v94h-164v140h164zM184 727v-217h-164v-100h164v-134h-164v-100h164v-368h106v368h164v100h-164v134h164v100h-164v217h-106z" />
    <glyph glyph-name="perthousand" unicode="&#x2030;" horiz-adv-x="948" 
d="M803 -10q-59 0 -104 47t-45 107q0 62 43.5 107.5t102.5 45.5q57 0 103 -47t46 -107q0 -62 -44.5 -107.5t-101.5 -45.5zM803 102q17 0 28 12t11 29q0 18 -12 30t-30 12q-16 0 -27.5 -12.5t-11.5 -29.5t12 -29t30 -12zM150 432q-59 0 -104 47t-45 107q0 62 43.5 107.5
t102.5 45.5q57 0 103 -47t46 -107q0 -62 -44.5 -107.5t-101.5 -45.5zM150 544q17 0 28 12t11 29q0 18 -12 30t-30 12q-16 0 -27.5 -12.5t-11.5 -29.5t12 -29t30 -12zM569 728l-407 -728h-110l407 728h110zM473 -10q-59 0 -104 47t-45 107q0 62 43.5 107.5t102.5 45.5
q57 0 103 -47t46 -107q0 -62 -44.5 -107.5t-101.5 -45.5zM473 102q17 0 28 12t11 29q0 18 -12 30t-30 12q-16 0 -27.5 -12.5t-11.5 -29.5t12 -29t30 -12zM803 10q51 0 88.5 38.5t37.5 94.5q0 53 -38.5 93.5t-90.5 40.5q-53 0 -89.5 -38.5t-36.5 -94.5q0 -53 38.5 -93.5
t90.5 -40.5zM803 82q-24 0 -43 18t-19 43q0 22 18 42t41 20q24 0 43 -19t19 -43q0 -22 -17.5 -41.5t-41.5 -19.5zM150 452q51 0 88.5 38.5t37.5 94.5q0 53 -38.5 93.5t-90.5 40.5q-53 0 -89.5 -38.5t-36.5 -94.5q0 -53 38.5 -93.5t90.5 -40.5zM150 524q-24 0 -43 18t-19 43
q0 22 18 42t41 20q24 0 43 -19t19 -43q0 -22 -17.5 -41.5t-41.5 -19.5zM151 20l384 688h-64l-384 -688h64zM473 10q51 0 88.5 38.5t37.5 94.5q0 53 -38.5 93.5t-90.5 40.5q-53 0 -89.5 -38.5t-36.5 -94.5q0 -53 38.5 -93.5t90.5 -40.5zM473 82q-24 0 -43 18t-19 43
q0 22 18 42t41 20q24 0 43 -19t19 -43q0 -22 -17.5 -41.5t-41.5 -19.5z" />
    <glyph glyph-name="guilsinglleft" unicode="&#x2039;" horiz-adv-x="272" 
d="M257 41l-242 170v130l242 170v-162l-102 -73l102 -73v-162zM35 221l202 -142v114l-116 83l116 83v114l-202 -142v-110z" />
    <glyph glyph-name="quoteleft" unicode="&#x2018;" 
d="M230 386h-200v169q0 70 57 122t143 52v-99q-33 -8 -51.5 -23.5t-23.5 -37.5h75v-183zM50 406h160v143h-81q11 43 31.5 66.5t49.5 30.5v61q-66 0 -113 -45t-47 -107v-149z" />
    <glyph glyph-name="quoteright" unicode="&#x2019;" 
d="M30 545v183h200v-169q0 -70 -57 -122t-143 -52v99q33 8 51.5 23.5t23.5 37.5h-75zM50 708v-143h81q-11 -43 -31.5 -66.5t-49.5 -30.5v-61q66 0 113 45t47 107v149h-160z" />
    <glyph glyph-name="quotedblleft" unicode="&#x201c;" horiz-adv-x="503" 
d="M474 405h-200v169q0 70 57 122t143 52v-99q-33 -8 -51.5 -23.5t-23.5 -37.5h75v-183zM230 405h-200v169q0 70 57 122t143 52v-99q-33 -8 -51.5 -23.5t-23.5 -37.5h75v-183zM294 425h160v143h-81q11 43 31.5 66.5t49.5 30.5v61q-66 0 -113 -45t-47 -107v-149zM50 425h160
v143h-81q11 43 31.5 66.5t49.5 30.5v61q-66 0 -113 -45t-47 -107v-149z" />
    <glyph glyph-name="quotedblright" unicode="&#x201d;" horiz-adv-x="503" 
d="M273 565v183h200v-169q0 -70 -57 -122t-143 -52v99q33 8 51.5 23.5t23.5 37.5h-75zM30 565v183h200v-169q0 -70 -57 -122t-143 -52v99q33 8 51.5 23.5t23.5 37.5h-75zM293 728v-143h81q-11 -43 -31.5 -66.5t-49.5 -30.5v-61q66 0 113 45t47 107v149h-160zM50 728v-143h81
q-11 -43 -31.5 -66.5t-49.5 -30.5v-61q66 0 113 45t47 107v149h-160z" />
    <glyph glyph-name="bullet" unicode="&#x2022;" horiz-adv-x="252" 
d="M125 230q-46 0 -83.5 37.5t-37.5 83.5q0 48 36 84t85 36q47 0 84 -36t37 -84t-37.5 -84.5t-83.5 -36.5zM125 250q40 0 70.5 29.5t30.5 71.5t-30 71t-71 29t-71 -29t-30 -71q0 -39 30 -70t71 -31z" />
    <glyph glyph-name="endash" unicode="&#x2013;" horiz-adv-x="691" 
d="M20 232v98h651v-98h-651zM40 310v-58h611v58h-611z" />
    <glyph glyph-name="emdash" unicode="&#x2014;" horiz-adv-x="820" 
d="M20 232v98h780v-98h-780zM40 310v-58h740v58h-740z" />
    <glyph glyph-name="trademark" unicode="&#x2122;" horiz-adv-x="910" 
d="M387 613h-102v-321h-140v321h-125v115h527l83 -277l83 277h162v-436h-140v168l-48 -168h-111l-49 170v-170h-140v321zM265 633h142v-321h100v287l84 -287h81l81 287l2 -287h100v396h-127l-97 -325l-99 325h-492v-75h125v-321h100v321z" />
    <glyph glyph-name="guilsinglright" unicode="&#x203a;" horiz-adv-x="272" 
d="M257 212l-242 -170v162l102 73l-102 73v162l242 -170v-130zM35 80l202 142v110l-202 142v-114l116 -83l-116 -83v-114z" />
    <glyph glyph-name="uni00A0" unicode="&#xa0;" horiz-adv-x="500" 
 />
    <glyph glyph-name="exclamdown" unicode="&#xa1;" horiz-adv-x="294" 
d="M47 0v244l34 266h132l34 -266v-244h-200zM247 545h-200v183h200v-183zM67 243v-223h160v223l-32 247h-96zM67 565h160v143h-160v-143z" />
    <glyph glyph-name="cent" unicode="&#xa2;" horiz-adv-x="579" 
d="M361 346l-80 -208l18 -2q29 0 51.5 20.5t22.5 59.5h189q0 -110 -81 -176q-74 -60 -182 -60q-39 0 -75 9l-46 -121h-63l54 141q-70 34 -109.5 99.5t-39.5 154.5q0 111 81 189t197 78q37 0 68 -7l43 113h64l-51 -131q67 -34 98 -73q42 -52 42 -132h-189q0 29 -12 46z
M233 176l76 198h-10q-43 0 -64 -30.5t-21 -79.5q0 -29 4 -50.5t15 -37.5zM254 122l102 261q20 -16 30 -37q7 -15 7 -26h149q0 50 -41 100t-105 74l48 122h-21l-44 -116q-28 6 -45.5 8t-35.5 2q-109 0 -183.5 -71.5t-74.5 -175.5q0 -169 154 -244l-50 -131h20l48 125
q27 -7 48.5 -10t38.5 -3q99 0 169 52q74 55 74 144h-149q0 -34 -29.5 -57t-64.5 -23q-8 0 -16.5 0.5t-28.5 5.5zM338 391l-102 -262q-24 34 -33 68t-9 67q0 55 26.5 92.5t78.5 37.5q27 0 39 -3z" />
    <glyph glyph-name="sterling" unicode="&#xa3;" horiz-adv-x="575" 
d="M267 437h159v-121h-127q9 -9 9 -43q0 -29 -17 -62q-21 -39 -56 -61l2 -2q15 6 36.5 9.5t33.5 3.5q36 0 63.5 -6.5l55.5 -13.5q22 0 47 7q37 11 69 35l56 -145q-49 -33 -96 -47q-38 -11 -81 -11q-52 0 -132 25q-41 13 -63 13q-27 0 -58.5 -8t-63.5 -30l-85 115
q78 53 113 105q26 38 26 73q0 11 -2.5 21.5t-8.5 21.5h-109v121h38q-9 19 -13.5 41t-4.5 56q0 81 60 140q75 74 214 74q118 0 184 -76q62 -72 62 -192h-172q0 53 -23.5 86.5t-60.5 33.5q-36 0 -61.5 -22t-25.5 -53q0 -45 32 -88zM406 417h-149q-42 55 -42 108q0 37 33 66
t74 29q42 0 73 -38t31 -82h131q0 101 -55 162q-60 66 -170 66q-131 0 -199 -66q-55 -53 -55 -128q0 -36 4.5 -55t24.5 -62h-49v-81h101q10 -19 14.5 -35t4.5 -28q0 -40 -25 -80q-33 -53 -106 -103l62 -83q23 16 57 23.5t60 7.5q28 0 67 -12q85 -26 128 -26q44 0 78 9t75 37
l-41 105q-18 -14 -52.5 -22t-54.5 -8q-13 0 -48 10t-71 10q-20 0 -44.5 -3t-50.5 -13l-9 16q40 28 64 69q21 36 21 64q0 15 -7.5 30t-22.5 32h148v81z" />
    <glyph glyph-name="currency" unicode="&#xa4;" horiz-adv-x="507" 
d="M253 117q-25 0 -53 10q-13 5 -47 21l-49 -45l-90 86l50 45q-11 21 -17.5 45.5t-6.5 50.5q0 23 6.5 47t17.5 46l-51 48l90 86l51 -48q19 15 45.5 23t53.5 8q51 0 100 -31l48 48l89 -86l-48 -47q11 -20 18.5 -45t7.5 -49q0 -27 -6 -49t-20 -47l48 -45l-89 -86l-48 45
q-32 -16 -46 -21q-28 -10 -54 -10zM253 252q34 0 55.5 22.5t21.5 55.5q0 30 -21.5 52.5t-55.5 22.5t-54.5 -21.5t-20.5 -53.5q0 -31 20.5 -54.5t54.5 -23.5zM253 137q26 0 61 15l43 20l44 -41l60 58l-44 41q31 56 31 100q0 42 -31 98l44 43l-60 58l-45 -45q-32 20 -55 28
t-48 8q-27 0 -49.5 -7.5t-50.5 -29.5l-50 46l-61 -58l47 -44q-29 -58 -29 -97q0 -43 29 -101l-46 -40l61 -59l45 42q39 -19 56 -25q27 -10 48 -10zM253 232q-41 0 -68 30t-27 68q0 37 27 66t68 29q40 0 68.5 -29.5t28.5 -65.5q0 -38 -28 -68t-69 -30z" />
    <glyph glyph-name="yen" unicode="&#xa5;" horiz-adv-x="658" 
d="M229 0v142h-166v128h166l-16 33h-150v128h79l-162 297h232l117 -263l117 263h232l-162 -297h79v-128h-149l-17 -33h166v-128h-166v-142h-200zM249 162v-142h160v142h166v88h-179l38 73h141v88h-93l162 297h-185l-130 -292l-130 292h-185l162 -297h-93v-88h143l35 -73
h-178v-88h166z" />
    <glyph glyph-name="brokenbar" unicode="&#xa6;" horiz-adv-x="216" 
d="M35 827h146v-442h-146v442zM35 322h146v-442h-146v442zM161 807h-106v-402h106v402zM161 302h-106v-402h106v402z" />
    <glyph glyph-name="section" unicode="&#xa7;" horiz-adv-x="578" 
d="M15 199h189q0 -40 23 -58q19 -15 50 -15q33 0 51.5 8.5t18.5 29.5q0 28 -83 50q-126 33 -154 46q-83 37 -83 103q0 39 18.5 72.5t46.5 46.5q-19 8 -35 39t-16 58q0 83 73 128q67 41 176 41q106 0 166 -41q67 -45 79 -139h-178q-6 19 -25.5 31.5t-44.5 12.5
q-27 0 -45 -8.5t-18 -29.5q0 -25 83 -44q120 -27 154 -43q84 -39 84 -112q0 -71 -41 -107q31 -36 31 -104q0 -73 -72 -123.5t-183 -50.5q-108 0 -186.5 61.5t-78.5 147.5zM329 334q17 4 22.5 11.5t5.5 23.5q0 11 -33 27t-72 23q-16 -8 -22 -15.5t-6 -20.5q0 -16 51 -33
q15 -5 54 -16zM185 179h-149q0 -65 72.5 -117t171.5 -52q106 0 170.5 43.5t64.5 110.5q0 30 -8.5 55t-30.5 51q26 23 37.5 48t11.5 57q0 63 -83 97q-1 1 -154 43q-84 23 -84 59q0 32 30 47q22 11 53 11q29 0 54.5 -15t29.5 -29h141q-9 71 -66 105.5t-156 34.5
q-105 0 -164 -35q-65 -39 -65 -114q0 -27 18.5 -52.5t60.5 -43.5q-52 -25 -72.5 -53t-20.5 -67q0 -55 83 -88l157 -47.5t80 -63.5q0 -30 -26.5 -44t-63.5 -14q-36 0 -61 16q-31 20 -31 57zM329 313q-66 19 -81 26q-44 19 -44 44q0 18 10.5 31.5t34.5 25.5q46 -9 87 -30.5
t41 -40.5q0 -21 -10 -35t-38 -21z" />
    <glyph glyph-name="dieresis" unicode="&#xa8;" horiz-adv-x="665" 
d="M583 762h-200v183h200v-183zM335 762h-200v183h200v-183zM45 0v728h594v-168h-394v-103h364v-168h-364v-121h413v-168h-613zM403 782h160v143h-160v-143zM155 782h160v143h-160v-143zM65 708v-688h573v128h-413v161h364v128h-364v143h394v128h-554z" />
    <glyph glyph-name="copyright" unicode="&#xa9;" horiz-adv-x="768" 
d="M768 363q0 -159 -112 -271t-271 -112t-272 112t-113 271t112.5 271.5t271.5 112.5t271.5 -112.5t112.5 -271.5zM463 319h143q-9 -105 -70 -159q-56 -50 -146 -50q-112 0 -176 70.5t-64 183.5q0 106 62.5 179t167.5 73q97 0 159 -53q67 -57 67 -154h-142q-8 42 -29.5 61.5
t-54.5 19.5q-44 0 -64 -41q-16 -33 -16 -84q0 -72 23 -103q20 -26 57 -26q36 0 56 19t27 64zM748 363q0 153 -105.5 258.5t-258.5 105.5t-258.5 -105.5t-105.5 -258.5q0 -154 105.5 -258.5t259.5 -104.5q153 0 258 105t105 258zM584 299h-104q-5 -38 -32.5 -60.5
t-67.5 -22.5q-57 0 -82 52q-18 38 -18 97q0 57 19 94q26 51 81 51q36 0 65 -22t36 -59h103q0 77 -57 122t-147 45q-97 0 -153.5 -66t-56.5 -166q0 -107 57.5 -170.5t162.5 -63.5q83 0 133 41q54 44 61 128z" />
    <glyph glyph-name="ordfeminine" unicode="&#xaa;" horiz-adv-x="441" 
d="M80 310v103h297v-103h-297zM187 638h-107q0 44 42 77t98 33q59 0 98.5 -27t39.5 -67v-142q0 -19 4 -33.5t16 -30.5h-114q-8 9 -11 21q-37 -27 -85 -27q-45 0 -72.5 26.5t-27.5 65.5q0 31 23.5 52.5t68.5 28t63 11.5q30 8 30 24q0 6 -10.5 13t-22.5 7q-33 0 -33 -32z
M253 554v33q-32 -12 -48 -17q-29 -11 -29 -27q0 -18 28 -18q36 0 49 29zM100 393v-63h257v63h-257zM100 658h67q0 6 17.5 19t35.5 13t35.5 -12.5t17.5 -27.5q0 -26 -38 -40q-24 -9 -68 -15t-61.5 -20.5t-17.5 -40.5q0 -72 80 -72q23 0 43 8t54 33l8 -35h66q0 4 1 9
q-2 26 -2 35v142q0 33 -31.5 53.5t-86.5 20.5q-49 0 -84.5 -22.5t-35.5 -47.5zM273 620v-70q-10 -22 -29.5 -33.5t-39.5 -11.5q-18 0 -31 8q-17 11 -17 30q0 28 39 44.5z" />
    <glyph glyph-name="guillemotleft" unicode="&#xab;" horiz-adv-x="449" 
d="M434 42l-194 170v130l194 170v-162l-82 -73l82 -73v-162zM209 42l-194 170v130l194 170v-162l-82 -73l82 -73v-162zM260 221l154 -135v109l-92 82l92 82v109l-154 -135v-112zM35 221l154 -135v109l-92 82l92 82v109l-154 -135v-112z" />
    <glyph glyph-name="logicalnot" unicode="&#xac;" horiz-adv-x="644" 
d="M494 300h-474v120h594v-211h-120v91zM40 320h474v-91h80v171h-554v-80z" />
    <glyph glyph-name="uni00AD" unicode="&#xad;" horiz-adv-x="662" 
d="M15 321v98h630v-98h-630zM35 399v-58h590v58h-590z" />
    <glyph glyph-name="registered" unicode="&#xae;" horiz-adv-x="592" 
d="M296 209q-114 0 -195 79t-81 190t81.5 190.5t194.5 79.5q114 0 195 -79t81 -191q0 -111 -81 -190t-195 -79zM168 329v304h169q44 0 75.5 -28t31.5 -68q0 -22 -13.5 -41t-32.5 -25q37 -16 37 -47v-62q0 -25 17 -33h-109q-14 10 -14 34v35q0 10 -7 18t-17 8h-33v-95h-104z
M272 551v-57h34q13 0 22 8t9 22q0 11 -9 19t-22 8h-34zM296 229q108 0 182 72t74 177t-74.5 177.5t-181.5 72.5q-108 0 -182 -72t-74 -178q0 -105 74 -177t182 -72zM188 613v-264h64v95h53q19 0 31.5 -13.5t12.5 -32.5v-35v-14h5h66q-2 0 -3.5 6.5t-1.5 18.5v50q0 12 -11 24
q-15 16 -41 23q28 7 44.5 25.5t16.5 40.5q0 33 -24.5 54.5t-62.5 21.5h-149zM252 474v97h54q22 0 36.5 -13.5t14.5 -33.5t-15 -35t-36 -15h-54z" />
    <glyph glyph-name="degree" unicode="&#xb0;" horiz-adv-x="441" 
d="M218 369q-79 0 -135.5 55.5t-56.5 134.5q0 78 56.5 133.5t135.5 55.5q80 0 136.5 -55.5t56.5 -133.5q0 -79 -56.5 -134.5t-136.5 -55.5zM218 479q34 0 58.5 23.5t24.5 56.5t-24 56t-59 23q-34 0 -58 -23t-24 -56t24.5 -56.5t57.5 -23.5zM218 389q73 0 123 49t50 121
t-49.5 120.5t-123.5 48.5t-123 -48t-49 -121q0 -72 49 -121t123 -49zM218 459q-40 0 -71 30t-31 70q0 39 31 69t71 30t71.5 -29.5t31.5 -69.5t-31 -70t-72 -30z" />
    <glyph glyph-name="plusminus" unicode="&#xb1;" horiz-adv-x="620" 
d="M236 140v223h-220v140h220v225h148v-225h222v-140h-222v-223h222v-140h-590v140h220zM256 383v-263h-220v-100h550v100h-222v263h222v100h-222v225h-108v-225h-220v-100h220z" />
    <glyph glyph-name="uni00B2" unicode="&#xb2;" horiz-adv-x="441" 
d="M373 324h-316v46q0 66 101.5 134t101.5 99q0 20 -11 34.5t-33 14.5q-24 0 -34.5 -19.5t-10.5 -55.5h-114q0 77 43 124t116 47q67 0 112 -33q52 -38 52 -103q0 -68 -69 -116l-115 -78h177v-94zM77 344h276v54h-205q36 36 111 86q101 67 101 128q0 56 -41.5 86t-102.5 30
q-64 0 -101.5 -36.5t-37.5 -94.5h74q0 27 14 48q18 27 51 27q30 0 47 -22t17 -47q0 -44 -101.5 -112t-101.5 -121v-26z" />
    <glyph glyph-name="uni00B3" unicode="&#xb3;" horiz-adv-x="441" 
d="M222 748q63 0 105 -29q49 -34 49 -97q0 -24 -12 -46.5t-30 -31.5q24 -8 42 -34t18 -55q0 -67 -53 -104q-47 -33 -119 -33q-67 0 -111 38q-48 42 -48 118h109q0 -29 13.5 -45.5t35.5 -16.5q21 0 37 12t16 32q0 19 -17.5 29.5t-43.5 10.5h-29v84h29q22 0 35.5 10.5
t13.5 26.5q0 15 -11.5 26t-28.5 11q-21 0 -33 -13t-12 -42h-107q0 65 40 107t112 42zM222 728q-65 0 -98.5 -30.5t-33.5 -78.5h67q0 23 19.5 39t45.5 16q23 0 41.5 -17.5t18.5 -39.5q0 -23 -21 -40t-48 -17h-9v-44h9q30 0 55.5 -16t25.5 -44q0 -27 -23.5 -45.5t-49.5 -18.5
t-47.5 19.5t-21.5 42.5h-69q0 -55 39 -85.5t100 -30.5q68 0 107 27q45 31 45 90q0 26 -18 45q-22 23 -73 40q40 21 58 43q15 18 15 39q0 53 -38 79.5t-96 26.5z" />
    <glyph glyph-name="mu" unicode="&#xb5;" horiz-adv-x="589" 
d="M35 530h189v-337q0 -19 18 -32t41 -13q31 0 56.5 18.5t25.5 44.5v319h189v-530h-189v40q-11 -22 -35 -36t-59 -14q-30 0 -47 17v-219h-189v742zM204 510h-149v-702h149v247q17 -24 35 -34.5t32 -10.5q30 0 56 17q30 20 56 63l2 -70h149v490h-149v-299q0 -34 -32 -58.5
t-70 -24.5q-30 0 -54.5 19t-24.5 46v317z" />
    <glyph glyph-name="paragraph" unicode="&#xb6;" horiz-adv-x="521" 
d="M360 606h-68v-606h-116v359q-75 9 -125.5 60.5t-50.5 123.5q0 77 59 131t142 54h80h195v-728h-116v606zM272 626h108v-606h76v688h-175h-80q-78 0 -129.5 -47t-51.5 -118q0 -66 47 -111t129 -55v-357h76v606z" />
    <glyph glyph-name="periodcentered" unicode="&#xb7;" horiz-adv-x="250" 
d="M230 273h-200v183h200v-183zM50 293h160v143h-160v-143z" />
    <glyph glyph-name="periodcentered" unicode="&#x2219;" horiz-adv-x="250" 
d="M230 273h-200v183h200v-183zM50 293h160v143h-160v-143z" />
    <glyph glyph-name="cedilla" unicode="&#xb8;" horiz-adv-x="590" 
d="M500 576h-190v172h190v-172zM279 576h-190v172h190v-172zM577 220h-370q0 -39 25.5 -66.5t62.5 -27.5q29 0 53 16t32 40h190q-11 -80 -91 -136t-184 -56q-116 0 -198 83t-82 200q0 111 81.5 189t198.5 78t199.5 -75.5t82.5 -182.5v-62zM207 336h173q-4 26 -30.5 47
t-58.5 21q-31 0 -56 -20t-28 -48zM330 596h150v132h-150v-132zM109 596h150v132h-150v-132zM187 240h370v42q0 100 -75 169t-187 69q-111 0 -185.5 -71.5t-74.5 -175.5q0 -111 75 -187t185 -76q96 0 170 47t82 105h-152q-6 -19 -37.5 -37.5t-62.5 -18.5q-45 0 -76.5 37.5
t-31.5 96.5zM403 316h-218q5 48 36 78t70 30t72 -30t40 -78z" />
    <glyph glyph-name="uni00B9" unicode="&#xb9;" horiz-adv-x="1044" 
d="M878 131q-59 0 -104 47t-45 107q0 62 43.5 107.5t102.5 45.5q57 0 103 -47t46 -107q0 -62 -44.5 -107.5t-101.5 -45.5zM878 243q17 0 28 12t11 29q0 18 -12 30t-30 12q-16 0 -27.5 -12.5t-11.5 -29.5t12 -29t30 -12zM736 0v103h281v-103h-281zM878 151q51 0 88.5 38.5
t37.5 94.5q0 53 -38.5 93.5t-90.5 40.5q-53 0 -89.5 -38.5t-36.5 -94.5q0 -53 38.5 -93.5t90.5 -40.5zM878 223q-24 0 -43 18t-19 43q0 22 18 42t41 20q24 0 43 -19t19 -43q0 -22 -17.5 -41.5t-41.5 -19.5zM756 83v-63h241v63h-241zM45 0v728h201l226 -395l2 395h200v-728
h-200l-227 402l-2 -402h-200zM65 708v-688h160v459l261 -459h168v688h-160v-450l-260 450h-169z" />
    <glyph glyph-name="ordmasculine" unicode="&#xba;" horiz-adv-x="441" 
d="M216 441q-59 0 -104 47t-45 107q0 62 43.5 107.5t102.5 45.5q57 0 103 -47t46 -107q0 -62 -44.5 -107.5t-101.5 -45.5zM216 553q17 0 28 12t11 29q0 18 -12 30t-30 12q-16 0 -27.5 -12.5t-11.5 -29.5t12 -29t30 -12zM74 310v103h281v-103h-281zM216 461q51 0 88.5 38.5
t37.5 94.5q0 53 -38.5 93.5t-90.5 40.5q-53 0 -89.5 -38.5t-36.5 -94.5q0 -53 38.5 -93.5t90.5 -40.5zM216 533q-24 0 -43 18t-19 43q0 22 18 42t41 20q24 0 43 -19t19 -43q0 -22 -17.5 -41.5t-41.5 -19.5zM94 393v-63h241v63h-241z" />
    <glyph glyph-name="guillemotright" unicode="&#xbb;" horiz-adv-x="449" 
d="M209 212l-194 -170v162l82 73l-82 73v162l194 -170v-130zM434 212l-194 -170v162l82 73l-82 73v162l194 -170v-130zM35 86l154 135v112l-154 135v-109l92 -82l-92 -82v-109zM260 86l154 135v112l-154 135v-109l92 -82l-92 -82v-109z" />
    <glyph glyph-name="onequarter" unicode="&#xbc;" horiz-adv-x="800" 
d="M609 0v84h-174v95l158 239h130v-240h48v-94h-48v-84h-114zM609 178v110l-75 -110h75zM572 748l-263 -768h-127l262 768h128zM141 323v269h-101v83h43q28 0 52.5 20.5t24.5 51.5h94v-424h-113zM629 104v-84h74v84h48v54h-48v240h-99l-149 -225v-69h174zM629 353v-195h-133
zM295 0l249 728h-86l-248 -728h85zM161 612v-269h73v384h-54q0 -25 -32.5 -48.5t-64.5 -23.5h-23v-43h101z" />
    <glyph glyph-name="onehalf" unicode="&#xbd;" horiz-adv-x="836" 
d="M787 0h-316v46q0 66 101.5 134t101.5 99q0 20 -11 34.5t-33 14.5q-24 0 -34.5 -19.5t-10.5 -55.5h-114q0 77 43 124t116 47q67 0 112 -33q52 -38 52 -103q0 -68 -69 -116l-115 -78h177v-94zM572 748l-263 -768h-127l262 768h128zM141 323v269h-101v83h43q28 0 52.5 20.5
t24.5 51.5h94v-424h-113zM491 20h276v54h-205q36 36 111 86q101 67 101 128q0 56 -41.5 86t-102.5 30q-64 0 -101.5 -36.5t-37.5 -94.5h74q0 27 14 48q18 27 51 27q30 0 47 -22t17 -47q0 -44 -101.5 -112t-101.5 -121v-26zM295 0l249 728h-86l-248 -728h85zM161 612v-269h73
v384h-54q0 -25 -32.5 -48.5t-64.5 -23.5h-23v-43h101z" />
    <glyph glyph-name="threequarters" unicode="&#xbe;" horiz-adv-x="886" 
d="M690 0v84h-174v95l158 239h130v-240h48v-94h-48v-84h-114zM690 178v110l-75 -110h75zM653 748l-263 -768h-127l262 768h128zM190 748q63 0 105 -29q49 -34 49 -97q0 -24 -12 -46.5t-30 -31.5q24 -8 42 -34t18 -55q0 -67 -53 -104q-47 -33 -119 -33q-67 0 -111 38
q-48 42 -48 118h109q0 -29 13.5 -45.5t35.5 -16.5q21 0 37 12t16 32q0 19 -17.5 29.5t-43.5 10.5h-29v84h29q22 0 35.5 10.5t13.5 26.5q0 15 -11.5 26t-28.5 11q-21 0 -33 -13t-12 -42h-107q0 65 40 107t112 42zM710 104v-84h74v84h48v54h-48v240h-99l-149 -225v-69h174z
M710 353v-195h-133zM376 0l249 728h-86l-248 -728h85zM190 728q-65 0 -98.5 -30.5t-33.5 -78.5h67q0 23 19.5 39t45.5 16q23 0 41.5 -17.5t18.5 -39.5q0 -23 -21 -40t-48 -17h-9v-44h9q30 0 55.5 -16t25.5 -44q0 -27 -23.5 -45.5t-49.5 -18.5t-47.5 19.5t-21.5 42.5h-69
q0 -55 39 -85.5t100 -30.5q68 0 107 27q45 31 45 90q0 26 -18 45q-22 23 -73 40q40 21 58 43q15 18 15 39q0 53 -38 79.5t-96 26.5z" />
    <glyph glyph-name="questiondown" unicode="&#xbf;" horiz-adv-x="600" 
d="M206 530h176v-82q0 -53 -79 -125t-79 -115q0 -26 20.5 -42.5t50.5 -16.5q36 0 58 29t22 79h190q0 -133 -77 -207q-73 -70 -191 -70q-119 0 -196 62t-77 166q0 57 47 105l87 79q48 51 48 113v25zM394 565h-200v183h200v-183zM362 510h-136v-5q0 -91 -91 -167t-91 -130
q0 -96 70 -152t183 -56q111 0 179.5 62.5t68.5 174.5h-150q0 -42 -28.5 -75t-71.5 -33q-37 0 -64 22.5t-27 56.5q0 54 79 126t79 114v62zM214 585h160v143h-160v-143z" />
    <glyph glyph-name="Agrave" unicode="&#xc0;" horiz-adv-x="724" 
d="M-9 0l269 728h206l269 -728h-215l-43 141h-228l-43 -141h-215zM428 289l-63 202l-69 -202h132zM274 708l-254 -688h171l43 141h258l43 -141h171l-254 688h-178zM455 269h-187l96 286z" />
    <glyph glyph-name="Agrave" unicode="&#x410;" horiz-adv-x="724" 
d="M-9 0l269 728h206l269 -728h-215l-43 141h-228l-43 -141h-215zM428 289l-63 202l-69 -202h132zM274 708l-254 -688h171l43 141h258l43 -141h171l-254 688h-178zM455 269h-187l96 286z" />
    <glyph glyph-name="Aacute" unicode="&#xc1;" horiz-adv-x="651" 
d="M45 0v728h541v-168h-341v-82h129q108 0 185 -70t77 -168q0 -99 -71.5 -169.5t-172.5 -70.5h-347zM245 310v-142h98q36 0 60.5 19.5t24.5 48.5q0 30 -25 52t-60 22h-98zM65 708v-688h327q95 0 159.5 63.5t64.5 156.5q0 92 -69 155t-173 63h-149v122h341v128h-501zM225 148
v182h118q41 0 73 -28t32 -66q0 -36 -32 -62t-73 -26h-118z" />
    <glyph glyph-name="Aacute" unicode="&#x411;" horiz-adv-x="651" 
d="M45 0v728h541v-168h-341v-82h129q108 0 185 -70t77 -168q0 -99 -71.5 -169.5t-172.5 -70.5h-347zM245 310v-142h98q36 0 60.5 19.5t24.5 48.5q0 30 -25 52t-60 22h-98zM65 708v-688h327q95 0 159.5 63.5t64.5 156.5q0 92 -69 155t-173 63h-149v122h341v128h-501zM225 148
v182h118q41 0 73 -28t32 -66q0 -36 -32 -62t-73 -26h-118z" />
    <glyph glyph-name="Acircumflex" unicode="&#xc2;" horiz-adv-x="715" 
d="M45 0v728h379q97 0 163 -60t66 -147q0 -40 -25.5 -83t-63.5 -63q54 -21 91 -66.5t37 -91.5q0 -90 -64.5 -153.5t-159.5 -63.5h-423zM245 560v-109h148q24 0 42 16t18 39t-17.5 38.5t-42.5 15.5h-148zM245 303v-135h167q31 0 51.5 19.5t20.5 48.5q0 27 -21 47t-51 20h-167
zM65 708v-688h403q84 0 144 58t60 140q0 43 -42.5 88.5t-103.5 65.5q45 21 76 63.5t31 84.5q0 80 -60 134t-149 54h-359zM225 431v149h168q34 0 57 -21t23 -52t-22.5 -53.5t-57.5 -22.5h-168zM225 148v175h187q39 0 65.5 -24.5t26.5 -61.5t-26 -63t-66 -26h-187z" />
    <glyph glyph-name="Acircumflex" unicode="&#x412;" horiz-adv-x="715" 
d="M45 0v728h379q97 0 163 -60t66 -147q0 -40 -25.5 -83t-63.5 -63q54 -21 91 -66.5t37 -91.5q0 -90 -64.5 -153.5t-159.5 -63.5h-423zM245 560v-109h148q24 0 42 16t18 39t-17.5 38.5t-42.5 15.5h-148zM245 303v-135h167q31 0 51.5 19.5t20.5 48.5q0 27 -21 47t-51 20h-167
zM65 708v-688h403q84 0 144 58t60 140q0 43 -42.5 88.5t-103.5 65.5q45 21 76 63.5t31 84.5q0 80 -60 134t-149 54h-359zM225 431v149h168q34 0 57 -21t23 -52t-22.5 -53.5t-57.5 -22.5h-168zM225 148v175h187q39 0 65.5 -24.5t26.5 -61.5t-26 -63t-66 -26h-187z" />
    <glyph glyph-name="Atilde" unicode="&#xc3;" horiz-adv-x="537" 
d="M45 0v728h497v-168h-297v-560h-200zM65 708v-688h160v560h297v128h-457z" />
    <glyph glyph-name="Atilde" unicode="&#x413;" horiz-adv-x="537" 
d="M45 0v728h497v-168h-297v-560h-200zM65 708v-688h160v560h297v128h-457z" />
    <glyph glyph-name="Adieresis" unicode="&#xc4;" horiz-adv-x="815" 
d="M615 0h-425v-212h-190v352q68 53 106 133q34 71 34 136v319h576v-560h89v-380h-190v212zM516 168v392h-176v-143q0 -143 -60 -249h236zM170 20h465v-212h150v340h-89v560h-536v-299q0 -70 -34 -143q-38 -83 -106 -136v-322h150v212zM536 580v-432h-290q39 69 56.5 134.5
t17.5 134.5v163h216z" />
    <glyph glyph-name="Adieresis" unicode="&#x414;" horiz-adv-x="815" 
d="M615 0h-425v-212h-190v352q68 53 106 133q34 71 34 136v319h576v-560h89v-380h-190v212zM516 168v392h-176v-143q0 -143 -60 -249h236zM170 20h465v-212h150v340h-89v560h-536v-299q0 -70 -34 -143q-38 -83 -106 -136v-322h150v212zM536 580v-432h-290q39 69 56.5 134.5
t17.5 134.5v163h216z" />
    <glyph glyph-name="Aring" unicode="&#xc5;" horiz-adv-x="688" 
d="M45 0v728h594v-168h-394v-103h364v-168h-364v-121h414v-168h-614zM65 708v-688h574v128h-414v161h364v128h-364v143h394v128h-554z" />
    <glyph glyph-name="Aring" unicode="&#x415;" horiz-adv-x="688" 
d="M45 0v728h594v-168h-394v-103h364v-168h-364v-121h414v-168h-614zM65 708v-688h574v128h-414v161h364v128h-364v143h394v128h-554z" />
    <glyph glyph-name="AE" unicode="&#xc6;" horiz-adv-x="1062" 
d="M431 0v246l-27 32l-178 -278h-241l285 423l-282 305h258l183 -253l2 253h200v-253l185 253h258l-282 -305l285 -423h-241l-178 278l-27 -32v-246h-200zM451 253v-233h160v233l49 59l187 -292h192l-272 405l261 283h-202l-213 -293l-2 293h-160v-295l-215 295h-202
l261 -283l-272 -405h192l187 292z" />
    <glyph glyph-name="AE" unicode="&#x416;" horiz-adv-x="1062" 
d="M431 0v246l-27 32l-178 -278h-241l285 423l-282 305h258l183 -253l2 253h200v-253l185 253h258l-282 -305l285 -423h-241l-178 278l-27 -32v-246h-200zM451 253v-233h160v233l49 59l187 -292h192l-272 405l261 283h-202l-213 -293l-2 293h-160v-295l-215 295h-202
l261 -283l-272 -405h192l187 292z" />
    <glyph glyph-name="Ccedilla" unicode="&#xc7;" horiz-adv-x="684" 
d="M243 291v158h124q33 0 50 20t17 52t-27.5 50t-64.5 18q-48 0 -78 -22.5t-34 -73.5h-187q0 115 82.5 185.5t220.5 70.5q118 0 203 -58.5t85 -150.5q0 -54 -25 -99.5t-66 -62.5q44 -9 83.5 -58.5t39.5 -102.5q0 -118 -105 -182q-90 -55 -215 -55q-135 0 -232 74t-97 179
h203q7 -53 49 -76q31 -17 79 -17q50 0 79 16q36 20 36 61q0 30 -27 52t-67 22h-126zM263 429v-118h106q45 0 79.5 -28.5t34.5 -65.5q0 -51 -44 -76q-37 -21 -91 -21q-69 0 -108 29q-32 23 -37 64h-165q0 -85 89.5 -149t218.5 -64q121 0 203 49q97 58 97 168q0 50 -35 93
q-39 48 -104 66q55 23 83 71q24 41 24 93q0 85 -77.5 137t-190.5 52q-131 0 -207 -60t-76 -156h149q0 45 38 70.5t92 25.5q41 0 76.5 -23.5t35.5 -64.5q0 -38 -21 -63q-24 -29 -66 -29h-104z" />
    <glyph glyph-name="Ccedilla" unicode="&#x417;" horiz-adv-x="684" 
d="M243 291v158h124q33 0 50 20t17 52t-27.5 50t-64.5 18q-48 0 -78 -22.5t-34 -73.5h-187q0 115 82.5 185.5t220.5 70.5q118 0 203 -58.5t85 -150.5q0 -54 -25 -99.5t-66 -62.5q44 -9 83.5 -58.5t39.5 -102.5q0 -118 -105 -182q-90 -55 -215 -55q-135 0 -232 74t-97 179
h203q7 -53 49 -76q31 -17 79 -17q50 0 79 16q36 20 36 61q0 30 -27 52t-67 22h-126zM263 429v-118h106q45 0 79.5 -28.5t34.5 -65.5q0 -51 -44 -76q-37 -21 -91 -21q-69 0 -108 29q-32 23 -37 64h-165q0 -85 89.5 -149t218.5 -64q121 0 203 49q97 58 97 168q0 50 -35 93
q-39 48 -104 66q55 23 83 71q24 41 24 93q0 85 -77.5 137t-190.5 52q-131 0 -207 -60t-76 -156h149q0 45 38 70.5t92 25.5q41 0 76.5 -23.5t35.5 -64.5q0 -38 -21 -63q-24 -29 -66 -29h-104z" />
    <glyph glyph-name="Egrave" unicode="&#xc8;" horiz-adv-x="743" 
d="M45 0v728h200v-429l253 429h200v-728h-200v434l-253 -434h-200zM65 708v-688h168l283 489l2 -489h160v688h-169l-282 -483l-2 483h-160z" />
    <glyph glyph-name="Egrave" unicode="&#x418;" horiz-adv-x="743" 
d="M45 0v728h200v-429l253 429h200v-728h-200v434l-253 -434h-200zM65 708v-688h168l283 489l2 -489h160v688h-169l-282 -483l-2 483h-160z" />
    <glyph glyph-name="Eacute" unicode="&#xc9;" horiz-adv-x="743" 
d="M364 736q-81 0 -137 38q-68 46 -68 135h138q0 -27 20.5 -45.5t48.5 -18.5q30 0 50.5 18.5t20.5 45.5h138q0 -88 -67 -134q-57 -39 -144 -39zM364 756q82 0 132 30q59 35 59 103h-98q0 -20 -29.5 -42t-61.5 -22t-60.5 22t-28.5 42h-98q0 -66 59 -102q51 -31 126 -31zM45 0
v728h200v-429l253 429h200v-728h-200v434l-253 -434h-200zM65 708v-688h168l283 489l2 -489h160v688h-169l-282 -483l-2 483h-160z" />
    <glyph glyph-name="Eacute" unicode="&#x419;" horiz-adv-x="743" 
d="M364 736q-81 0 -137 38q-68 46 -68 135h138q0 -27 20.5 -45.5t48.5 -18.5q30 0 50.5 18.5t20.5 45.5h138q0 -88 -67 -134q-57 -39 -144 -39zM364 756q82 0 132 30q59 35 59 103h-98q0 -20 -29.5 -42t-61.5 -22t-60.5 22t-28.5 42h-98q0 -66 59 -102q51 -31 126 -31zM45 0
v728h200v-429l253 429h200v-728h-200v434l-253 -434h-200zM65 708v-688h168l283 489l2 -489h160v688h-169l-282 -483l-2 483h-160z" />
    <glyph glyph-name="Ecircumflex" unicode="&#xca;" horiz-adv-x="731" 
d="M45 0v728h200v-253l234 253h253l-313 -308l327 -420h-242l-214 293l-45 -44v-249h-200zM65 708v-688h160v237l68 66l221 -303h191l-313 402l291 286h-195l-260 -283l-3 283h-160z" />
    <glyph glyph-name="Ecircumflex" unicode="&#x41a;" horiz-adv-x="731" 
d="M45 0v728h200v-253l234 253h253l-313 -308l327 -420h-242l-214 293l-45 -44v-249h-200zM65 708v-688h160v237l68 66l221 -303h191l-313 402l291 286h-195l-260 -283l-3 283h-160z" />
    <glyph glyph-name="Edieresis" unicode="&#xcb;" horiz-adv-x="725" 
d="M480 560h-162v-167q0 -128 -6 -175q-13 -103 -58 -159q-55 -69 -164 -69q-32 0 -48 1.5t-42 8.5v168q17 -4 35 -6.5t30 -2.5q37 0 48 94q5 44 5 93v382h562v-728h-200v560zM298 580h202v-560h160v688h-522v-362q0 -86 -11 -132q-18 -75 -62 -75h-26q-14 3 -19 4v-128
q12 -3 38 -4t32 -1q98 0 149 64q40 50 52 149q7 56 7 170v187z" />
    <glyph glyph-name="Edieresis" unicode="&#x41b;" horiz-adv-x="725" 
d="M480 560h-162v-167q0 -128 -6 -175q-13 -103 -58 -159q-55 -69 -164 -69q-32 0 -48 1.5t-42 8.5v168q17 -4 35 -6.5t30 -2.5q37 0 48 94q5 44 5 93v382h562v-728h-200v560zM298 580h202v-560h160v688h-522v-362q0 -86 -11 -132q-18 -75 -62 -75h-26q-14 3 -19 4v-128
q12 -3 38 -4t32 -1q98 0 149 64q40 50 52 149q7 56 7 170v187z" />
    <glyph glyph-name="Igrave" unicode="&#xcc;" horiz-adv-x="860" 
d="M45 0v728h248l141 -483l143 483h248v-728h-200v402l-104 -402h-172l-102 402l-2 -402h-200zM65 708v-688h160v546l140 -546h140l138 546l2 -546h160v688h-213l-156 -534l-158 534h-213z" />
    <glyph glyph-name="Igrave" unicode="&#x41c;" horiz-adv-x="860" 
d="M45 0v728h248l141 -483l143 483h248v-728h-200v402l-104 -402h-172l-102 402l-2 -402h-200zM65 708v-688h160v546l140 -546h140l138 546l2 -546h160v688h-213l-156 -534l-158 534h-213z" />
    <glyph glyph-name="Iacute" unicode="&#xcd;" horiz-adv-x="741" 
d="M45 0v728h200v-262h251v262h200v-728h-200v298h-251v-298h-200zM65 708v-688h160v298h291v-298h160v688h-160v-262h-291v262h-160z" />
    <glyph glyph-name="Iacute" unicode="&#x41d;" horiz-adv-x="741" 
d="M45 0v728h200v-262h251v262h200v-728h-200v298h-251v-298h-200zM65 708v-688h160v298h291v-298h160v688h-160v-262h-291v262h-160z" />
    <glyph glyph-name="Icircumflex" unicode="&#xce;" horiz-adv-x="784" 
d="M392 -20q-174 0 -276 113q-96 106 -96 271q0 158 97 267q104 117 274 117q171 0 275 -113q98 -107 98 -271q0 -165 -96 -271q-102 -113 -276 -113zM393 148q85 0 127 64q36 55 36 152q0 96 -34 150q-41 66 -129 66q-86 0 -128 -64q-37 -56 -37 -152t37 -152
q42 -64 128 -64zM392 0q166 0 262 106q90 99 90 258q0 158 -92 258q-97 106 -261 106q-162 0 -260 -109q-91 -102 -91 -255q0 -158 90 -258q96 -106 262 -106zM393 128q-95 0 -143 72q-42 62 -42 164q0 101 41 163q49 73 144 73q96 0 143 -74q40 -63 40 -162
q0 -101 -41 -163q-48 -73 -142 -73z" />
    <glyph glyph-name="Icircumflex" unicode="&#x41e;" horiz-adv-x="784" 
d="M392 -20q-174 0 -276 113q-96 106 -96 271q0 158 97 267q104 117 274 117q171 0 275 -113q98 -107 98 -271q0 -165 -96 -271q-102 -113 -276 -113zM393 148q85 0 127 64q36 55 36 152q0 96 -34 150q-41 66 -129 66q-86 0 -128 -64q-37 -56 -37 -152t37 -152
q42 -64 128 -64zM392 0q166 0 262 106q90 99 90 258q0 158 -92 258q-97 106 -261 106q-162 0 -260 -109q-91 -102 -91 -255q0 -158 90 -258q96 -106 262 -106zM393 128q-95 0 -143 72q-42 62 -42 164q0 101 41 163q49 73 144 73q96 0 143 -74q40 -63 40 -162
q0 -101 -41 -163q-48 -73 -142 -73z" />
    <glyph glyph-name="Idieresis" unicode="&#xcf;" horiz-adv-x="731" 
d="M45 0v728h651v-728h-200v560h-251v-560h-200zM65 708v-688h160v560h291v-560h160v688h-611z" />
    <glyph glyph-name="Idieresis" unicode="&#x41f;" horiz-adv-x="731" 
d="M45 0v728h651v-728h-200v560h-251v-560h-200zM65 708v-688h160v560h291v-560h160v688h-611z" />
    <glyph glyph-name="Eth" unicode="&#xd0;" horiz-adv-x="663" 
d="M45 0v728h363q104 0 174.5 -73.5t70.5 -175.5t-70 -173t-181 -71h-157v-235h-200zM245 560v-157h121q31 0 56 23t25 53q0 34 -21.5 57.5t-56.5 23.5h-124zM65 708v-688h160v235h177q103 0 167 64t64 160t-63.5 162.5t-161.5 66.5h-343zM225 383v197h144q41 0 69.5 -30.5
t28.5 -70.5q0 -36 -32 -66t-69 -30h-141z" />
    <glyph glyph-name="Eth" unicode="&#x420;" horiz-adv-x="663" 
d="M45 0v728h363q104 0 174.5 -73.5t70.5 -175.5t-70 -173t-181 -71h-157v-235h-200zM245 560v-157h121q31 0 56 23t25 53q0 34 -21.5 57.5t-56.5 23.5h-124zM65 708v-688h160v235h177q103 0 167 64t64 160t-63.5 162.5t-161.5 66.5h-343zM225 383v197h144q41 0 69.5 -30.5
t28.5 -70.5q0 -36 -32 -66t-69 -30h-141z" />
    <glyph glyph-name="Ntilde" unicode="&#xd1;" horiz-adv-x="733" 
d="M378 -20q-168 0 -263.5 106t-95.5 278q0 162 93 270q98 114 258 114q147 0 240 -76q100 -81 100 -222h-199q-9 65 -46.5 97.5t-93.5 32.5q-77 0 -114 -70q-30 -56 -30 -144q0 -93 26 -146q35 -72 116 -72q57 0 91.5 33.5t50.5 97.5h199q0 -151 -100 -230
q-88 -69 -232 -69zM378 0q131 0 212 62q88 68 100 197h-163q-14 -57 -53 -92q-43 -39 -105 -39q-92 0 -132 81q-30 60 -30 157q0 92 34 155q43 79 130 79q60 0 104.5 -35t52.5 -95h162q0 119 -90.5 188.5t-229.5 69.5q-152 0 -244 -107q-87 -102 -87 -257q0 -166 87 -263
q91 -101 252 -101z" />
    <glyph glyph-name="Ntilde" unicode="&#x421;" horiz-adv-x="733" 
d="M378 -20q-168 0 -263.5 106t-95.5 278q0 162 93 270q98 114 258 114q147 0 240 -76q100 -81 100 -222h-199q-9 65 -46.5 97.5t-93.5 32.5q-77 0 -114 -70q-30 -56 -30 -144q0 -93 26 -146q35 -72 116 -72q57 0 91.5 33.5t50.5 97.5h199q0 -151 -100 -230
q-88 -69 -232 -69zM378 0q131 0 212 62q88 68 100 197h-163q-14 -57 -53 -92q-43 -39 -105 -39q-92 0 -132 81q-30 60 -30 157q0 92 34 155q43 79 130 79q60 0 104.5 -35t52.5 -95h162q0 119 -90.5 188.5t-229.5 69.5q-152 0 -244 -107q-87 -102 -87 -257q0 -166 87 -263
q91 -101 252 -101z" />
    <glyph glyph-name="Ograve" unicode="&#xd2;" horiz-adv-x="620" 
d="M200 0v560h-200v168h600v-168h-200v-560h-200zM220 580v-560h160v560h200v128h-560v-128h200z" />
    <glyph glyph-name="Ograve" unicode="&#x422;" horiz-adv-x="620" 
d="M200 0v560h-200v168h600v-168h-200v-560h-200zM220 580v-560h160v560h200v128h-560v-128h200z" />
    <glyph glyph-name="Oacute" unicode="&#xd3;" horiz-adv-x="690" 
d="M478 727h231l-293 -651q-22 -48 -68 -74q-40 -22 -86 -22q-39 0 -67 3.5t-64 16.5v172q29 -15 49 -19t39 -4q12 0 20 7.5t17 22.5l4 7l-271 541h239l130 -319zM492 707l-131 -354l-146 354h-194l262 -522l-10 -16q-9 -17 -22 -28.5t-32 -11.5q-23 0 -39 1.5t-29 8.5v-125
q22 -8 50.5 -11t60.5 -3q42 0 76 19q40 22 60 65l280 623h-186z" />
    <glyph glyph-name="Oacute" unicode="&#x423;" horiz-adv-x="690" 
d="M478 727h231l-293 -651q-22 -48 -68 -74q-40 -22 -86 -22q-39 0 -67 3.5t-64 16.5v172q29 -15 49 -19t39 -4q12 0 20 7.5t17 22.5l4 7l-271 541h239l130 -319zM492 707l-131 -354l-146 354h-194l262 -522l-10 -16q-9 -17 -22 -28.5t-32 -11.5q-23 0 -39 1.5t-29 8.5v-125
q22 -8 50.5 -11t60.5 -3q42 0 76 19q40 22 60 65l280 623h-186z" />
    <glyph glyph-name="Ocircumflex" unicode="&#xd4;" horiz-adv-x="900" 
d="M350 0v74h-35q-126 0 -215.5 88.5t-89.5 208.5q0 121 91 212t214 91h35v54h200v-54h35q131 0 220 -93q85 -88 85 -210q0 -119 -82 -205q-88 -92 -223 -92h-35v-74h-200zM550 506v-264h7q51 0 89 36t38 93q0 59 -36 97t-91 38h-7zM350 242v264h-7q-51 0 -89 -39t-38 -96
q0 -56 40 -94q37 -35 87 -35h7zM370 94v-74h160v74h55q126 0 208 85q77 80 77 192q0 116 -78 197q-82 86 -207 86h-55v54h-160v-54h-55q-116 0 -200.5 -83.5t-84.5 -199.5q0 -113 82 -195t203 -82h55zM530 222v304h27q60 0 103.5 -45.5t43.5 -109.5q0 -63 -45 -106t-102 -43
h-27zM370 526v-304h-27q-56 0 -100 41q-47 44 -47 108q0 63 45 109t102 46h27z" />
    <glyph glyph-name="Ocircumflex" unicode="&#x424;" horiz-adv-x="900" 
d="M350 0v74h-35q-126 0 -215.5 88.5t-89.5 208.5q0 121 91 212t214 91h35v54h200v-54h35q131 0 220 -93q85 -88 85 -210q0 -119 -82 -205q-88 -92 -223 -92h-35v-74h-200zM550 506v-264h7q51 0 89 36t38 93q0 59 -36 97t-91 38h-7zM350 242v264h-7q-51 0 -89 -39t-38 -96
q0 -56 40 -94q37 -35 87 -35h7zM370 94v-74h160v74h55q126 0 208 85q77 80 77 192q0 116 -78 197q-82 86 -207 86h-55v54h-160v-54h-55q-116 0 -200.5 -83.5t-84.5 -199.5q0 -113 82 -195t203 -82h55zM530 222v304h27q60 0 103.5 -45.5t43.5 -109.5q0 -63 -45 -106t-102 -43
h-27zM370 526v-304h-27q-56 0 -100 41q-47 44 -47 108q0 63 45 109t102 46h27z" />
    <glyph glyph-name="Otilde" unicode="&#xd5;" horiz-adv-x="706" 
d="M356 508l129 220h226l-235 -360l237 -368h-228l-129 211l-131 -211h-228l244 368l-237 360h226zM496 708l-140 -240l-138 240h-177l224 -340l-231 -348h180l142 229l140 -229h180l-224 348l222 340h-178z" />
    <glyph glyph-name="Otilde" unicode="&#x425;" horiz-adv-x="706" 
d="M356 508l129 220h226l-235 -360l237 -368h-228l-129 211l-131 -211h-228l244 368l-237 360h226zM496 708l-140 -240l-138 240h-177l224 -340l-231 -348h180l142 229l140 -229h180l-224 348l222 340h-178z" />
    <glyph glyph-name="Odieresis" unicode="&#xd6;" horiz-adv-x="762" 
d="M45 0v728h200v-560h228v560h200v-560h89v-380h-190v212h-527zM65 708v-688h527v-212h150v340h-89v560h-160v-560h-268v560h-160z" />
    <glyph glyph-name="Odieresis" unicode="&#x426;" horiz-adv-x="762" 
d="M45 0v728h200v-560h228v560h200v-560h89v-380h-190v212h-527zM65 708v-688h527v-212h150v340h-89v560h-160v-560h-268v560h-160z" />
    <glyph glyph-name="multiply" unicode="&#xd7;" horiz-adv-x="681" 
d="M436 0v253h-148q-115 0 -199 77t-84 189v209h200v-177q0 -54 33 -92t81 -38h117v307h200v-728h-200zM456 273v-253h160v688h-160v-307h-137q-54 0 -94 45t-40 105v157h-160v-189q0 -104 77 -175t186 -71h168z" />
    <glyph glyph-name="multiply" unicode="&#x427;" horiz-adv-x="681" 
d="M436 0v253h-148q-115 0 -199 77t-84 189v209h200v-177q0 -54 33 -92t81 -38h117v307h200v-728h-200zM456 273v-253h160v688h-160v-307h-137q-54 0 -94 45t-40 105v157h-160v-189q0 -104 77 -175t186 -71h168z" />
    <glyph glyph-name="Oslash" unicode="&#xd8;" horiz-adv-x="1090" 
d="M45 0v728h200v-560h200v560h200v-560h200v560h200v-728h-1000zM65 708v-688h960v688h-160v-560h-240v560h-160v-560h-240v560h-160z" />
    <glyph glyph-name="Oslash" unicode="&#x428;" horiz-adv-x="1090" 
d="M45 0v728h200v-560h200v560h200v-560h200v560h200v-728h-1000zM65 708v-688h960v688h-160v-560h-240v560h-160v-560h-240v560h-160z" />
    <glyph glyph-name="Ugrave" unicode="&#xd9;" horiz-adv-x="1134" 
d="M45 0v728h200v-560h200v560h200v-560h200v560h200v-560h89v-380h-190v212h-899zM65 708v-688h899v-212h150v340h-89v560h-160v-560h-240v560h-160v-560h-240v560h-160z" />
    <glyph glyph-name="Ugrave" unicode="&#x429;" horiz-adv-x="1134" 
d="M45 0v728h200v-560h200v560h200v-560h200v560h200v-560h89v-380h-190v212h-899zM65 708v-688h899v-212h150v340h-89v560h-160v-560h-240v560h-160v-560h-240v560h-160z" />
    <glyph glyph-name="Uacute" unicode="&#xda;" horiz-adv-x="721" 
d="M107 0v560h-117v168h317v-242h151q115 0 184 -73q64 -68 64 -170q0 -98 -67 -168q-71 -75 -181 -75h-351zM307 318v-150h109q39 0 62.5 21.5t23.5 54.5t-24.5 53.5t-66.5 20.5h-104zM127 580v-560h331q103 0 165.5 65.5t62.5 157.5q0 95 -58 157q-62 66 -170 66h-171v242
h-277v-128h117zM287 148v190h124q49 0 80 -27t31 -67q0 -38 -30 -67t-76 -29h-129z" />
    <glyph glyph-name="Uacute" unicode="&#x42a;" horiz-adv-x="721" 
d="M107 0v560h-117v168h317v-242h151q115 0 184 -73q64 -68 64 -170q0 -98 -67 -168q-71 -75 -181 -75h-351zM307 318v-150h109q39 0 62.5 21.5t23.5 54.5t-24.5 53.5t-66.5 20.5h-104zM127 580v-560h331q103 0 165.5 65.5t62.5 157.5q0 95 -58 157q-62 66 -170 66h-171v242
h-277v-128h117zM287 148v190h124q49 0 80 -27t31 -67q0 -38 -30 -67t-76 -29h-129z" />
    <glyph glyph-name="Ucircumflex" unicode="&#xdb;" horiz-adv-x="918" 
d="M673 0v728h200v-728h-200zM45 0v728h200v-242h151q115 0 184 -73q64 -68 64 -170q0 -98 -67 -168q-71 -75 -181 -75h-351zM245 318v-150h109q39 0 62.5 21.5t23.5 54.5t-24.5 53.5t-66.5 20.5h-104zM693 708v-688h160v688h-160zM65 708v-688h331q103 0 165.5 65.5
t62.5 157.5q0 95 -58 157q-62 66 -170 66h-171v242h-160zM225 148v190h124q49 0 80 -27t31 -67q0 -38 -30 -67t-76 -29h-129z" />
    <glyph glyph-name="Ucircumflex" unicode="&#x42b;" horiz-adv-x="918" 
d="M673 0v728h200v-728h-200zM45 0v728h200v-242h151q115 0 184 -73q64 -68 64 -170q0 -98 -67 -168q-71 -75 -181 -75h-351zM245 318v-150h109q39 0 62.5 21.5t23.5 54.5t-24.5 53.5t-66.5 20.5h-104zM693 708v-688h160v688h-160zM65 708v-688h331q103 0 165.5 65.5
t62.5 157.5q0 95 -58 157q-62 66 -170 66h-171v242h-160zM225 148v190h124q49 0 80 -27t31 -67q0 -38 -30 -67t-76 -29h-129z" />
    <glyph glyph-name="Udieresis" unicode="&#xdc;" horiz-adv-x="659" 
d="M45 0v728h200v-242h151q115 0 184 -73q64 -68 64 -170q0 -98 -67 -168q-71 -75 -181 -75h-351zM245 318v-150h109q39 0 62.5 21.5t23.5 54.5t-24.5 53.5t-66.5 20.5h-104zM65 708v-688h331q103 0 165.5 65.5t62.5 157.5q0 95 -58 157q-62 66 -170 66h-171v242h-160z
M225 148v190h124q49 0 80 -27t31 -67q0 -38 -30 -67t-76 -29h-129z" />
    <glyph glyph-name="Udieresis" unicode="&#x42c;" horiz-adv-x="659" 
d="M45 0v728h200v-242h151q115 0 184 -73q64 -68 64 -170q0 -98 -67 -168q-71 -75 -181 -75h-351zM245 318v-150h109q39 0 62.5 21.5t23.5 54.5t-24.5 53.5t-66.5 20.5h-104zM65 708v-688h331q103 0 165.5 65.5t62.5 157.5q0 95 -58 157q-62 66 -170 66h-171v242h-160z
M225 148v190h124q49 0 80 -27t31 -67q0 -38 -30 -67t-76 -29h-129z" />
    <glyph glyph-name="Yacute" unicode="&#xdd;" horiz-adv-x="738" 
d="M503 290h-232v150h231q-12 63 -42 98q-36 42 -96 42q-50 0 -91.5 -34t-48.5 -81h-201q0 118 98 200.5t244 82.5q160 0 258 -114q93 -108 93 -270q0 -170 -94 -275q-98 -109 -265 -109q-133 0 -225.5 80t-103.5 196h200q11 -45 51.5 -76.5t86.5 -31.5q63 0 98 43
q29 35 39 99zM291 310h235q-13 -85 -47 -129q-40 -53 -113 -53q-51 0 -97.5 33.5t-56.5 74.5h-162q9 -96 92 -164q88 -72 215 -72q160 0 249.5 99.5t89.5 264.5q0 157 -86 257q-92 107 -245 107q-137 0 -228.5 -72.5t-91.5 -170.5h162q5 41 54 78t103 37q67 0 109 -52
q38 -46 53 -128h-235v-110z" />
    <glyph glyph-name="Yacute" unicode="&#x42d;" horiz-adv-x="738" 
d="M503 290h-232v150h231q-12 63 -42 98q-36 42 -96 42q-50 0 -91.5 -34t-48.5 -81h-201q0 118 98 200.5t244 82.5q160 0 258 -114q93 -108 93 -270q0 -170 -94 -275q-98 -109 -265 -109q-133 0 -225.5 80t-103.5 196h200q11 -45 51.5 -76.5t86.5 -31.5q63 0 98 43
q29 35 39 99zM291 310h235q-13 -85 -47 -129q-40 -53 -113 -53q-51 0 -97.5 33.5t-56.5 74.5h-162q9 -96 92 -164q88 -72 215 -72q160 0 249.5 99.5t89.5 264.5q0 157 -86 257q-92 107 -245 107q-137 0 -228.5 -72.5t-91.5 -170.5h162q5 41 54 78t103 37q67 0 109 -52
q38 -46 53 -128h-235v-110z" />
    <glyph glyph-name="Thorn" unicode="&#xde;" horiz-adv-x="1061" 
d="M45 -1v730h200v-263h72q30 123 121 200q98 82 238 82q171 0 275 -113q98 -107 98 -271q0 -165 -96 -271q-102 -113 -276 -113q-154 0 -254 92q-93 86 -113 226h-65v-299h-200zM678 148q85 0 127 64q36 55 36 152q0 96 -34 150q-41 66 -129 66q-86 0 -128 -64
q-37 -56 -37 -152t37 -152q42 -64 128 -64zM65 709v-690h160v299h102q21 -147 108 -230q92 -88 242 -88q166 0 262 106q90 99 90 258q0 158 -92 258q-97 106 -261 106q-136 0 -226 -78q-86 -74 -117 -204h-108v263h-160zM678 128q-95 0 -143 72q-42 62 -42 164q0 101 41 163
q49 73 144 73q96 0 143 -74q40 -63 40 -162q0 -101 -41 -163q-48 -73 -142 -73z" />
    <glyph glyph-name="Thorn" unicode="&#x42e;" horiz-adv-x="1061" 
d="M45 -1v730h200v-263h72q30 123 121 200q98 82 238 82q171 0 275 -113q98 -107 98 -271q0 -165 -96 -271q-102 -113 -276 -113q-154 0 -254 92q-93 86 -113 226h-65v-299h-200zM678 148q85 0 127 64q36 55 36 152q0 96 -34 150q-41 66 -129 66q-86 0 -128 -64
q-37 -56 -37 -152t37 -152q42 -64 128 -64zM65 709v-690h160v299h102q21 -147 108 -230q92 -88 242 -88q166 0 262 106q90 99 90 258q0 158 -92 258q-97 106 -261 106q-136 0 -226 -78q-86 -74 -117 -204h-108v263h-160zM678 128q-95 0 -143 72q-42 62 -42 164q0 101 41 163
q49 73 144 73q96 0 143 -74q40 -63 40 -162q0 -101 -41 -163q-48 -73 -142 -73z" />
    <glyph glyph-name="germandbls" unicode="&#xdf;" horiz-adv-x="706" 
d="M461 0v252h-147q-26 0 -44.5 -18.5t-18.5 -45.5v-85q0 -30 -5.5 -52.5t-21.5 -50.5h-204q17 24 24 46.5t7 55.5v136q0 34 17 62t48 38q-38 20 -64.5 68t-26.5 102q0 90 75 155t181 65h380v-728h-200zM461 406v154h-152q-32 0 -55 -22t-23 -55q0 -32 22.5 -54.5
t55.5 -22.5h152zM481 272v-252h160v688h-360q-100 0 -168 -58t-68 -142q0 -56 32.5 -106t85.5 -61q-47 -11 -69.5 -39t-22.5 -64v-136q0 -32 -4.5 -54.5t-7.5 -27.5h153q11 18 15 37.5t4 45.5v85q0 32 25 58t58 26h167zM481 580v-194h-172q-38 0 -68 29t-30 68
q0 38 29.5 67.5t68.5 29.5h172z" />
    <glyph glyph-name="germandbls" unicode="&#x42f;" horiz-adv-x="706" 
d="M461 0v252h-147q-26 0 -44.5 -18.5t-18.5 -45.5v-85q0 -30 -5.5 -52.5t-21.5 -50.5h-204q17 24 24 46.5t7 55.5v136q0 34 17 62t48 38q-38 20 -64.5 68t-26.5 102q0 90 75 155t181 65h380v-728h-200zM461 406v154h-152q-32 0 -55 -22t-23 -55q0 -32 22.5 -54.5
t55.5 -22.5h152zM481 272v-252h160v688h-360q-100 0 -168 -58t-68 -142q0 -56 32.5 -106t85.5 -61q-47 -11 -69.5 -39t-22.5 -64v-136q0 -32 -4.5 -54.5t-7.5 -27.5h153q11 18 15 37.5t4 45.5v85q0 32 25 58t58 26h167zM481 580v-194h-172q-38 0 -68 29t-30 68
q0 38 29.5 67.5t68.5 29.5h172z" />
    <glyph glyph-name="agrave" unicode="&#xe0;" horiz-adv-x="580" 
d="M223 344h-190q0 80 75 138t177 58q106 0 177.5 -48.5t71.5 -120.5v-255q0 -36 7.5 -62t27.5 -54h-204q-9 9 -14 18.5t-7 18.5q-32 -23 -69 -35t-83 -12q-83 0 -132 46t-49 118q0 58 42.5 96.5t128 51t109.5 19.5q53 15 53 42q0 14 -17.5 25.5t-43.5 11.5
q-25 0 -42.5 -16.5t-17.5 -39.5zM344 191v61q-13 -8 -64 -24q-77 -25 -77 -55q0 -23 22 -31q11 -4 30 -4q29 0 53.5 13.5t35.5 39.5zM53 364h150q0 16 25.5 36t54.5 20q31 0 56 -18t25 -39q0 -38 -61 -58q-33 -11 -116 -23t-119.5 -44.5t-36.5 -83.5q0 -65 42.5 -104.5
t118.5 -39.5q47 0 81.5 12.5t83.5 48.5q3 -16 7 -30.5t10 -20.5h155q-5 8 -10 34.5t-5 61.5v255q0 65 -64 107t-165 42q-95 0 -163.5 -47.5t-68.5 -108.5zM364 287v-100q-14 -34 -45 -51.5t-64 -17.5q-29 0 -48 12q-24 15 -24 43q0 39 61 64z" />
    <glyph glyph-name="agrave" unicode="&#x430;" horiz-adv-x="580" 
d="M223 344h-190q0 80 75 138t177 58q106 0 177.5 -48.5t71.5 -120.5v-255q0 -36 7.5 -62t27.5 -54h-204q-9 9 -14 18.5t-7 18.5q-32 -23 -69 -35t-83 -12q-83 0 -132 46t-49 118q0 58 42.5 96.5t128 51t109.5 19.5q53 15 53 42q0 14 -17.5 25.5t-43.5 11.5
q-25 0 -42.5 -16.5t-17.5 -39.5zM344 191v61q-13 -8 -64 -24q-77 -25 -77 -55q0 -23 22 -31q11 -4 30 -4q29 0 53.5 13.5t35.5 39.5zM53 364h150q0 16 25.5 36t54.5 20q31 0 56 -18t25 -39q0 -38 -61 -58q-33 -11 -116 -23t-119.5 -44.5t-36.5 -83.5q0 -65 42.5 -104.5
t118.5 -39.5q47 0 81.5 12.5t83.5 48.5q3 -16 7 -30.5t10 -20.5h155q-5 8 -10 34.5t-5 61.5v255q0 65 -64 107t-165 42q-95 0 -163.5 -47.5t-68.5 -108.5zM364 287v-100q-14 -34 -45 -51.5t-64 -17.5q-29 0 -48 12q-24 15 -24 43q0 39 61 64z" />
    <glyph glyph-name="aacute" unicode="&#xe1;" horiz-adv-x="611" 
d="M308 -10q-123 0 -207.5 96.5t-84.5 235.5q0 172 68 276q75 115 218 115h100q18 0 35.5 10t23.5 25h124q-12 -73 -73 -124t-138 -51h-53q-41 0 -75 -27t-42 -66q17 20 48.5 35t65.5 15q114 0 194 -79t80 -190q0 -113 -82 -192t-202 -79zM302 148q42 0 71 32t29 79t-29 80
t-70 33t-69 -33t-28 -80q0 -48 27 -79.5t69 -31.5zM308 10q114 0 189 72t75 179q0 106 -72.5 177.5t-181.5 71.5q-39 0 -82 -27q-49 -31 -64 -76q-1 77 47 131.5t102 54.5h53q70 0 124 41t63 94h-87q-4 -10 -28 -22.5t-44 -12.5h-100q-134 0 -203 -106q-63 -97 -63 -265
q0 -133 77.5 -222.5t194.5 -89.5zM302 128q-47 0 -81.5 38.5t-34.5 92.5t34.5 93.5t82.5 39.5q47 0 83 -40t36 -93t-36 -92t-84 -39z" />
    <glyph glyph-name="aacute" unicode="&#x431;" horiz-adv-x="611" 
d="M308 -10q-123 0 -207.5 96.5t-84.5 235.5q0 172 68 276q75 115 218 115h100q18 0 35.5 10t23.5 25h124q-12 -73 -73 -124t-138 -51h-53q-41 0 -75 -27t-42 -66q17 20 48.5 35t65.5 15q114 0 194 -79t80 -190q0 -113 -82 -192t-202 -79zM302 148q42 0 71 32t29 79t-29 80
t-70 33t-69 -33t-28 -80q0 -48 27 -79.5t69 -31.5zM308 10q114 0 189 72t75 179q0 106 -72.5 177.5t-181.5 71.5q-39 0 -82 -27q-49 -31 -64 -76q-1 77 47 131.5t102 54.5h53q70 0 124 41t63 94h-87q-4 -10 -28 -22.5t-44 -12.5h-100q-134 0 -203 -106q-63 -97 -63 -265
q0 -133 77.5 -222.5t194.5 -89.5zM302 128q-47 0 -81.5 38.5t-34.5 92.5t34.5 93.5t82.5 39.5q47 0 83 -40t36 -93t-36 -92t-84 -39z" />
    <glyph glyph-name="acircumflex" unicode="&#xe2;" horiz-adv-x="554" 
d="M35 0v530h290q79 0 134.5 -44.5t55.5 -107.5q0 -34 -12 -55q-15 -26 -51 -42v-4q35 -12 61 -47t26 -69q0 -65 -60 -113t-146 -48h-298zM225 394v-68h65q14 0 24.5 10.5t10.5 26.5q0 13 -10 22t-26 9h-64zM225 210v-73h80q16 0 28 11t12 26t-11.5 25.5t-28.5 10.5h-80z
M55 510v-490h278q80 0 133 41t53 100q0 33 -26 64q-31 37 -86 52v4q52 17 72 44q16 21 16 53q0 56 -48 94t-122 38h-270zM205 306v108h84q21 0 38.5 -15.5t17.5 -35.5q0 -21 -17 -39t-38 -18h-85zM205 117v113h100q22 0 41 -17t19 -39t-18.5 -39.5t-41.5 -17.5h-100z" />
    <glyph glyph-name="acircumflex" unicode="&#x432;" horiz-adv-x="554" 
d="M35 0v530h290q79 0 134.5 -44.5t55.5 -107.5q0 -34 -12 -55q-15 -26 -51 -42v-4q35 -12 61 -47t26 -69q0 -65 -60 -113t-146 -48h-298zM225 394v-68h65q14 0 24.5 10.5t10.5 26.5q0 13 -10 22t-26 9h-64zM225 210v-73h80q16 0 28 11t12 26t-11.5 25.5t-28.5 10.5h-80z
M55 510v-490h278q80 0 133 41t53 100q0 33 -26 64q-31 37 -86 52v4q52 17 72 44q16 21 16 53q0 56 -48 94t-122 38h-270zM205 306v108h84q21 0 38.5 -15.5t17.5 -35.5q0 -21 -17 -39t-38 -18h-85zM205 117v113h100q22 0 41 -17t19 -39t-18.5 -39.5t-41.5 -17.5h-100z" />
    <glyph glyph-name="atilde" unicode="&#xe3;" horiz-adv-x="400" 
d="M35 0v530h380v-146h-191v-384h-189zM55 510v-490h149v384h191v106h-340z" />
    <glyph glyph-name="atilde" unicode="&#x433;" horiz-adv-x="400" 
d="M35 0v530h380v-146h-191v-384h-189zM55 510v-490h149v384h191v106h-340z" />
    <glyph glyph-name="adieresis" unicode="&#xe4;" horiz-adv-x="630" 
d="M472 0h-314v-199h-158v326q69 51 91 109q17 44 17 132v162h461v-384h61v-345h-158v199zM379 146v238h-102q0 -83 -11 -137.5t-42 -100.5h155zM138 20h354v-199h118v305h-61v384h-421v-142q0 -90 -17 -137q-23 -64 -91 -114v-296h118v199zM399 404v-278h-213q44 65 59 128
q12 52 12 150h142z" />
    <glyph glyph-name="adieresis" unicode="&#x434;" horiz-adv-x="630" 
d="M472 0h-314v-199h-158v326q69 51 91 109q17 44 17 132v162h461v-384h61v-345h-158v199zM379 146v238h-102q0 -83 -11 -137.5t-42 -100.5h155zM138 20h354v-199h118v305h-61v384h-421v-142q0 -90 -17 -137q-23 -64 -91 -114v-296h118v199zM399 404v-278h-213q44 65 59 128
q12 52 12 150h142z" />
    <glyph glyph-name="aring" unicode="&#xe5;" horiz-adv-x="590" 
d="M577 220h-370q0 -39 25.5 -66.5t62.5 -27.5q29 0 53 16t32 40h190q-11 -80 -91 -136t-184 -56q-116 0 -198 83t-82 200q0 111 81.5 189t198.5 78t199.5 -75.5t82.5 -182.5v-62zM207 336h173q-4 26 -30.5 47t-58.5 21q-31 0 -56 -20t-28 -48zM187 240h370v42
q0 100 -75 169t-187 69q-111 0 -185.5 -71.5t-74.5 -175.5q0 -111 75 -187t185 -76q96 0 170 47t82 105h-152q-6 -19 -37.5 -37.5t-62.5 -18.5q-45 0 -76.5 37.5t-31.5 96.5zM403 316h-218q5 48 36 78t70 30q43 0 75 -26q37 -30 37 -82z" />
    <glyph glyph-name="aring" unicode="&#x435;" horiz-adv-x="590" 
d="M577 220h-370q0 -39 25.5 -66.5t62.5 -27.5q29 0 53 16t32 40h190q-11 -80 -91 -136t-184 -56q-116 0 -198 83t-82 200q0 111 81.5 189t198.5 78t199.5 -75.5t82.5 -182.5v-62zM207 336h173q-4 26 -30.5 47t-58.5 21q-31 0 -56 -20t-28 -48zM187 240h370v42
q0 100 -75 169t-187 69q-111 0 -185.5 -71.5t-74.5 -175.5q0 -111 75 -187t185 -76q96 0 170 47t82 105h-152q-6 -19 -37.5 -37.5t-62.5 -18.5q-45 0 -76.5 37.5t-31.5 96.5zM403 316h-218q5 48 36 78t70 30q43 0 75 -26q37 -30 37 -82z" />
    <glyph glyph-name="ae" unicode="&#xe6;" horiz-adv-x="863" 
d="M337 0v161l-26 29l-97 -190h-229l205 321l-192 209h238l99 -152l2 152h190v-152l102 152h237l-192 -209l204 -321h-229l-96 190l-26 -29v-161h-190zM357 169v-149h150v149l51 56l103 -205h181l-193 303l171 187h-180l-131 -201l-2 201h-150v-201l-132 201h-181l171 -187
l-193 -303h180l104 205z" />
    <glyph glyph-name="ae" unicode="&#x436;" horiz-adv-x="863" 
d="M337 0v161l-26 29l-97 -190h-229l205 321l-192 209h238l99 -152l2 152h190v-152l102 152h237l-192 -209l204 -321h-229l-96 190l-26 -29v-161h-190zM357 169v-149h150v149l51 56l103 -205h181l-193 303l171 187h-180l-131 -201l-2 201h-150v-201l-132 201h-181l171 -187
l-193 -303h180l104 205z" />
    <glyph glyph-name="ccedilla" unicode="&#xe7;" horiz-adv-x="527" 
d="M164 210v116h111q31 0 31 40q0 15 -16.5 26.5t-40.5 11.5q-25 0 -43.5 -10.5t-22.5 -27.5h-159q10 79 60 123q58 51 165 51q104 0 171 -44.5t67 -110.5q0 -35 -18 -65t-50 -40q32 -6 64.5 -43t32.5 -76q0 -77 -68.5 -124t-198.5 -47q-96 0 -166 51q-74 54 -74 134h167
q5 -30 26 -41q16 -8 46 -8h21q24 0 40.5 12.5t16.5 32.5q0 17 -13 28t-34 11h-115zM184 306v-76h95q26 0 46.5 -17.5t20.5 -41.5q0 -27 -24 -46t-53 -19q-48 0 -66 5q-39 11 -44 44h-128q0 -57 65.5 -101t152.5 -44q121 0 184 42t63 109q0 33 -33 69q-36 39 -83 48
q44 12 67 45q20 29 20 62q0 57 -62 96t-156 39q-96 0 -151 -46q-43 -36 -51 -88h120q2 11 29 24.5t53 13.5q30 0 53.5 -17.5t23.5 -40.5q0 -26 -14 -43t-37 -17h-91z" />
    <glyph glyph-name="ccedilla" unicode="&#x437;" horiz-adv-x="527" 
d="M164 210v116h111q31 0 31 40q0 15 -16.5 26.5t-40.5 11.5q-25 0 -43.5 -10.5t-22.5 -27.5h-159q10 79 60 123q58 51 165 51q104 0 171 -44.5t67 -110.5q0 -35 -18 -65t-50 -40q32 -6 64.5 -43t32.5 -76q0 -77 -68.5 -124t-198.5 -47q-96 0 -166 51q-74 54 -74 134h167
q5 -30 26 -41q16 -8 46 -8h21q24 0 40.5 12.5t16.5 32.5q0 17 -13 28t-34 11h-115zM184 306v-76h95q26 0 46.5 -17.5t20.5 -41.5q0 -27 -24 -46t-53 -19q-48 0 -66 5q-39 11 -44 44h-128q0 -57 65.5 -101t152.5 -44q121 0 184 42t63 109q0 33 -33 69q-36 39 -83 48
q44 12 67 45q20 29 20 62q0 57 -62 96t-156 39q-96 0 -151 -46q-43 -36 -51 -88h120q2 11 29 24.5t53 13.5q30 0 53.5 -17.5t23.5 -40.5q0 -26 -14 -43t-37 -17h-91z" />
    <glyph glyph-name="egrave" unicode="&#xe8;" horiz-adv-x="590" 
d="M35 0v530h190v-278l140 278h190v-530h-190v274l-140 -274h-190zM55 510v-490h158l170 340l2 -340h150v490h-158l-170 -341l-2 341h-150z" />
    <glyph glyph-name="egrave" unicode="&#x438;" horiz-adv-x="590" 
d="M35 0v530h190v-278l140 278h190v-530h-190v274l-140 -274h-190zM55 510v-490h158l170 340l2 -340h150v490h-158l-170 -341l-2 341h-150z" />
    <glyph glyph-name="eacute" unicode="&#xe9;" horiz-adv-x="590" 
d="M102 728h131q0 -23 18 -40t44 -17t44 16t18 41h133q0 -72 -55.5 -114t-139.5 -42q-83 0 -136 40q-57 43 -57 116zM213 708h-91q0 -44 50.5 -80t122.5 -36q73 0 124 36t51 80h-93q0 -17 -26 -37t-56 -20q-31 0 -56.5 19.5t-25.5 37.5zM35 0v530h190v-278l140 278h190v-530
h-190v274l-140 -274h-190zM55 510v-490h158l170 340l2 -340h150v490h-158l-170 -341l-2 341h-150z" />
    <glyph glyph-name="eacute" unicode="&#x439;" horiz-adv-x="590" 
d="M102 728h131q0 -23 18 -40t44 -17t44 16t18 41h133q0 -72 -55.5 -114t-139.5 -42q-83 0 -136 40q-57 43 -57 116zM213 708h-91q0 -44 50.5 -80t122.5 -36q73 0 124 36t51 80h-93q0 -17 -26 -37t-56 -20q-31 0 -56.5 19.5t-25.5 37.5zM35 0v530h190v-278l140 278h190v-530
h-190v274l-140 -274h-190zM55 510v-490h158l170 340l2 -340h150v490h-158l-170 -341l-2 341h-150z" />
    <glyph glyph-name="ecircumflex" unicode="&#xea;" horiz-adv-x="578" 
d="M35 0v530h190v-152l124 152h238l-201 -213l207 -317h-227l-106 193l-35 -33v-160h-190zM55 510v-490h150v149l60 56l113 -205h178l-195 299l180 191h-182l-152 -188l-2 188h-150z" />
    <glyph glyph-name="ecircumflex" unicode="&#x43a;" horiz-adv-x="578" 
d="M35 0v530h190v-152l124 152h238l-201 -213l207 -317h-227l-106 193l-35 -33v-160h-190zM55 510v-490h150v149l60 56l113 -205h178l-195 299l180 191h-182l-152 -188l-2 188h-150z" />
    <glyph glyph-name="edieresis" unicode="&#xeb;" horiz-adv-x="605" 
d="M380 384h-102v-108q0 -122 -35 -192q-47 -94 -150 -94q-28 0 -43.5 1.5t-49.5 8.5v156q17 -8 26.5 -10t22.5 -2q23 0 35 23t12 61v302h474v-530h-190v384zM258 404h142v-384h150v490h-434v-282q0 -44 -17 -74t-50 -30l-29 1v-109q18 -4 35 -5t38 -1q92 0 133 84
q32 66 32 182v128z" />
    <glyph glyph-name="edieresis" unicode="&#x43b;" horiz-adv-x="605" 
d="M380 384h-102v-108q0 -122 -35 -192q-47 -94 -150 -94q-28 0 -43.5 1.5t-49.5 8.5v156q17 -8 26.5 -10t22.5 -2q23 0 35 23t12 61v302h474v-530h-190v384zM258 404h142v-384h150v490h-434v-282q0 -44 -17 -74t-50 -30l-29 1v-109q18 -4 35 -5t38 -1q92 0 133 84
q32 66 32 182v128z" />
    <glyph glyph-name="igrave" unicode="&#xec;" horiz-adv-x="764" 
d="M35 0v530h220l127 -359l127 359h220v-530h-190v256l-90 -256h-134l-88 256l-2 -256h-190zM55 510v-490h150v356l124 -356h106l122 349l2 -349h150v490h-186l-139 -398l-143 398h-186z" />
    <glyph glyph-name="igrave" unicode="&#x43c;" horiz-adv-x="764" 
d="M35 0v530h220l127 -359l127 359h220v-530h-190v256l-90 -256h-134l-88 256l-2 -256h-190zM55 510v-490h150v356l124 -356h106l122 349l2 -349h150v490h-186l-139 -398l-143 398h-186z" />
    <glyph glyph-name="iacute" unicode="&#xed;" horiz-adv-x="590" 
d="M35 0v530h190v-183h140v183h190v-530h-190v201h-140v-201h-190zM55 510v-490h150v201h180v-201h150v490h-150v-183h-180v183h-150z" />
    <glyph glyph-name="iacute" unicode="&#x43d;" horiz-adv-x="590" 
d="M35 0v530h190v-183h140v183h190v-530h-190v201h-140v-201h-190zM55 510v-490h150v201h180v-201h150v490h-150v-183h-180v183h-150z" />
    <glyph glyph-name="icircumflex" unicode="&#xee;" horiz-adv-x="616" 
d="M306 -10q-130 0 -213 76t-83 201q0 123 83 198t213 75q134 0 217 -74t83 -199q0 -123 -85 -200t-215 -77zM306 146q53 0 79.5 33.5t26.5 87.5q0 53 -27 85t-79 32q-49 0 -75.5 -32.5t-26.5 -84.5q0 -54 26 -87.5t76 -33.5zM306 10q123 0 201.5 70.5t78.5 186.5
q0 118 -76 185.5t-204 67.5q-125 0 -200.5 -68t-75.5 -185q0 -119 75.5 -188t200.5 -69zM306 126q-57 0 -89.5 40.5t-32.5 100.5q0 58 32.5 97.5t89.5 39.5q60 0 93 -38.5t33 -98.5t-30 -98q-34 -43 -96 -43z" />
    <glyph glyph-name="icircumflex" unicode="&#x43e;" horiz-adv-x="616" 
d="M306 -10q-130 0 -213 76t-83 201q0 123 83 198t213 75q134 0 217 -74t83 -199q0 -123 -85 -200t-215 -77zM306 146q53 0 79.5 33.5t26.5 87.5q0 53 -27 85t-79 32q-49 0 -75.5 -32.5t-26.5 -84.5q0 -54 26 -87.5t76 -33.5zM306 10q123 0 201.5 70.5t78.5 186.5
q0 118 -76 185.5t-204 67.5q-125 0 -200.5 -68t-75.5 -185q0 -119 75.5 -188t200.5 -69zM306 126q-57 0 -89.5 40.5t-32.5 100.5q0 58 32.5 97.5t89.5 39.5q60 0 93 -38.5t33 -98.5t-30 -98q-34 -43 -96 -43z" />
    <glyph glyph-name="idieresis" unicode="&#xef;" horiz-adv-x="590" 
d="M35 0v530h520v-530h-190v384h-140v-384h-190zM55 510v-490h150v384h180v-384h150v490h-480z" />
    <glyph glyph-name="idieresis" unicode="&#x43f;" horiz-adv-x="590" 
d="M35 0v530h520v-530h-190v384h-140v-384h-190zM55 510v-490h150v384h180v-384h150v490h-480z" />
    <glyph glyph-name="eth" unicode="&#xf0;" horiz-adv-x="612" 
d="M35 -212v742h190v-53q17 24 56.5 43.5t77.5 19.5q111 0 177 -88q59 -79 59 -188q0 -110 -59 -187q-67 -87 -178 -87q-39 0 -77.5 18.5t-55.5 40.5v-261h-190zM225 282v-34q0 -42 25 -72t62 -30q41 0 65 34.5t24 86.5q0 48 -24.5 80.5t-64.5 32.5q-36 0 -61.5 -28.5
t-25.5 -69.5zM55 510v-702h150v289q39 -48 75.5 -67.5t77.5 -19.5q103 0 163 78q54 71 54 176q0 104 -53 176q-59 80 -163 80q-41 0 -76 -20q-45 -26 -76 -80l-2 90h-150zM205 248v34q0 46 32 82t75 36q47 0 78 -40t31 -93q0 -56 -30 -98.5t-79 -42.5q-44 0 -75.5 36.5
t-31.5 85.5z" />
    <glyph glyph-name="eth" unicode="&#x440;" horiz-adv-x="612" 
d="M35 -212v742h190v-53q17 24 56.5 43.5t77.5 19.5q111 0 177 -88q59 -79 59 -188q0 -110 -59 -187q-67 -87 -178 -87q-39 0 -77.5 18.5t-55.5 40.5v-261h-190zM225 282v-34q0 -42 25 -72t62 -30q41 0 65 34.5t24 86.5q0 48 -24.5 80.5t-64.5 32.5q-36 0 -61.5 -28.5
t-25.5 -69.5zM55 510v-702h150v289q39 -48 75.5 -67.5t77.5 -19.5q103 0 163 78q54 71 54 176q0 104 -53 176q-59 80 -163 80q-41 0 -76 -20q-45 -26 -76 -80l-2 90h-150zM205 248v34q0 46 32 82t75 36q47 0 78 -40t31 -93q0 -56 -30 -98.5t-79 -42.5q-44 0 -75.5 36.5
t-31.5 85.5z" />
    <glyph glyph-name="ntilde" unicode="&#xf1;" horiz-adv-x="572" 
d="M294 -10q-123 0 -201 79t-78 204q0 111 81 189t197 78q109 0 184 -62q80 -66 80 -168h-189q0 39 -21 56.5t-53 17.5q-43 0 -64 -30.5t-21 -79.5q0 -56 21 -92t64 -36q29 0 51.5 20.5t22.5 59.5h189q0 -110 -81 -176q-74 -60 -182 -60zM294 10q99 0 169 52q74 55 74 144
h-149q0 -34 -29.5 -57t-64.5 -23q-50 0 -77.5 44t-27.5 104q0 55 26.5 92.5t78.5 37.5q35 0 64.5 -19.5t29.5 -54.5h149q0 82 -70.5 136t-173.5 54q-109 0 -183.5 -71.5t-74.5 -175.5q0 -119 71 -191t188 -72z" />
    <glyph glyph-name="ntilde" unicode="&#x441;" horiz-adv-x="572" 
d="M294 -10q-123 0 -201 79t-78 204q0 111 81 189t197 78q109 0 184 -62q80 -66 80 -168h-189q0 39 -21 56.5t-53 17.5q-43 0 -64 -30.5t-21 -79.5q0 -56 21 -92t64 -36q29 0 51.5 20.5t22.5 59.5h189q0 -110 -81 -176q-74 -60 -182 -60zM294 10q99 0 169 52q74 55 74 144
h-149q0 -34 -29.5 -57t-64.5 -23q-50 0 -77.5 44t-27.5 104q0 55 26.5 92.5t78.5 37.5q35 0 64.5 -19.5t29.5 -54.5h149q0 82 -70.5 136t-173.5 54q-109 0 -183.5 -71.5t-74.5 -175.5q0 -119 71 -191t188 -72z" />
    <glyph glyph-name="ograve" unicode="&#xf2;" horiz-adv-x="472" 
d="M141 0v384h-141v146h472v-146h-142v-384h-189zM161 404v-384h149v384h142v106h-432v-106h141z" />
    <glyph glyph-name="ograve" unicode="&#x442;" horiz-adv-x="472" 
d="M141 0v384h-141v146h472v-146h-142v-384h-189zM161 404v-384h149v384h142v106h-432v-106h141z" />
    <glyph glyph-name="oacute" unicode="&#xf3;" horiz-adv-x="570" 
d="M362 530h218l-227 -635q-20 -53 -70.5 -85.5t-107.5 -32.5q-29 0 -47.5 4t-48.5 14v158q15 -9 31.5 -13.5t30.5 -4.5q19 0 30 11t18 34l10 30l-209 520h219l82 -285zM378 510l-83 -342l-101 342h-174l200 -499l-12 -37q-8 -26 -24.5 -42.5t-42.5 -16.5q-11 0 -25 0.5
t-17 2.5v-109q39 -12 76 -12q52 0 96.5 28.5t62.5 76.5l218 608h-174z" />
    <glyph glyph-name="oacute" unicode="&#x443;" horiz-adv-x="570" 
d="M362 530h218l-227 -635q-20 -53 -70.5 -85.5t-107.5 -32.5q-29 0 -47.5 4t-48.5 14v158q15 -9 31.5 -13.5t30.5 -4.5q19 0 30 11t18 34l10 30l-209 520h219l82 -285zM378 510l-83 -342l-101 342h-174l200 -499l-12 -37q-8 -26 -24.5 -42.5t-42.5 -16.5q-11 0 -25 0.5
t-17 2.5v-109q39 -12 76 -12q52 0 96.5 28.5t62.5 76.5l218 608h-174z" />
    <glyph glyph-name="ocircumflex" unicode="&#xf4;" horiz-adv-x="944" 
d="M377 -212v256q-23 -24 -60 -39t-72 -15q-119 0 -179 88q-51 74 -51 190q0 117 49 187q59 85 181 85q41 0 76 -15.5t56 -42.5v246h190v-246q22 25 57 41.5t75 16.5q121 0 180 -84q50 -71 50 -188t-50 -190q-60 -88 -180 -88q-34 0 -71.5 15t-60.5 39v-256h-190zM377 233
v67q0 33 -23.5 56.5t-56.5 23.5q-40 0 -64 -33t-24 -82q0 -51 24 -85t66 -34q33 0 55.5 27.5t22.5 59.5zM567 300v-67q0 -32 22 -59.5t56 -27.5q43 0 66.5 33.5t23.5 85.5q0 49 -24 82t-64 33q-33 0 -56.5 -23.5t-23.5 -56.5zM397 -192h150v281q44 -44 84 -63q34 -16 68 -16
q109 0 164 80q46 67 46 178q0 113 -44 176q-53 76 -166 76q-35 0 -69 -18t-81 -68l-2 274h-150v-274q-43 47 -80.5 66.5t-71.5 19.5q-112 0 -165 -76q-45 -64 -45 -176t45 -178q54 -80 165 -80q32 0 70 19t80 60zM397 300v-67q0 -37 -27 -70q-30 -37 -71 -37q-50 0 -80 41.5
t-30 97.5q0 54 30 94.5t78 40.5q39 0 69.5 -30.5t30.5 -69.5zM547 233v67q0 39 30.5 69.5t69.5 30.5q48 0 78 -40t30 -95q0 -57 -28 -96q-31 -43 -82 -43q-42 0 -70 34.5t-28 72.5z" />
    <glyph glyph-name="ocircumflex" unicode="&#x444;" horiz-adv-x="944" 
d="M377 -212v256q-23 -24 -60 -39t-72 -15q-119 0 -179 88q-51 74 -51 190q0 117 49 187q59 85 181 85q41 0 76 -15.5t56 -42.5v246h190v-246q22 25 57 41.5t75 16.5q121 0 180 -84q50 -71 50 -188t-50 -190q-60 -88 -180 -88q-34 0 -71.5 15t-60.5 39v-256h-190zM377 233
v67q0 33 -23.5 56.5t-56.5 23.5q-40 0 -64 -33t-24 -82q0 -51 24 -85t66 -34q33 0 55.5 27.5t22.5 59.5zM567 300v-67q0 -32 22 -59.5t56 -27.5q43 0 66.5 33.5t23.5 85.5q0 49 -24 82t-64 33q-33 0 -56.5 -23.5t-23.5 -56.5zM397 -192h150v281q44 -44 84 -63q34 -16 68 -16
q109 0 164 80q46 67 46 178q0 113 -44 176q-53 76 -166 76q-35 0 -69 -18t-81 -68l-2 274h-150v-274q-43 47 -80.5 66.5t-71.5 19.5q-112 0 -165 -76q-45 -64 -45 -176t45 -178q54 -80 165 -80q32 0 70 19t80 60zM397 300v-67q0 -37 -27 -70q-30 -37 -71 -37q-50 0 -80 41.5
t-30 97.5q0 54 30 94.5t78 40.5q39 0 69.5 -30.5t30.5 -69.5zM547 233v67q0 39 30.5 69.5t69.5 30.5q48 0 78 -40t30 -95q0 -57 -28 -96q-31 -43 -82 -43q-42 0 -70 34.5t-28 72.5z" />
    <glyph glyph-name="otilde" unicode="&#xf5;" horiz-adv-x="604" 
d="M303 406l77 124h225l-185 -258l190 -272h-235l-72 122l-72 -122h-236l194 273l-188 257h225zM391 510l-88 -142l-88 142h-175l174 -237l-180 -253h186l83 141l83 -141h186l-177 252l171 238h-175z" />
    <glyph glyph-name="otilde" unicode="&#x445;" horiz-adv-x="604" 
d="M303 406l77 124h225l-185 -258l190 -272h-235l-72 122l-72 -122h-236l194 273l-188 257h225zM391 510l-88 -142l-88 142h-175l174 -237l-180 -253h186l83 141l83 -141h186l-177 252l171 238h-175z" />
    <glyph glyph-name="odieresis" unicode="&#xf6;" horiz-adv-x="613" 
d="M35 0v531h190v-385h137v385h190v-385h61v-345h-158v199h-420zM55 511v-491h420v-199h118v305h-61v385h-150v-385h-177v385h-150z" />
    <glyph glyph-name="odieresis" unicode="&#x446;" horiz-adv-x="613" 
d="M35 0v531h190v-385h137v385h190v-385h61v-345h-158v199h-420zM55 511v-491h420v-199h118v305h-61v385h-150v-385h-177v385h-150z" />
    <glyph glyph-name="divide" unicode="&#xf7;" horiz-adv-x="574" 
d="M349 0v190q-28 -18 -65 -27t-74 -9q-84 0 -139.5 42t-55.5 115v219h184v-157q0 -24 16.5 -43.5t40.5 -19.5q34 0 49.5 4t43.5 22v194h190v-530h-190zM369 227v-207h150v490h-150v-185q-34 -23 -57 -29t-56 -6q-30 0 -53.5 26.5t-23.5 56.5v137h-144v-199
q0 -64 48.5 -100.5t126.5 -36.5q39 0 74.5 11t84.5 42z" />
    <glyph glyph-name="divide" unicode="&#x447;" horiz-adv-x="574" 
d="M349 0v190q-28 -18 -65 -27t-74 -9q-84 0 -139.5 42t-55.5 115v219h184v-157q0 -24 16.5 -43.5t40.5 -19.5q34 0 49.5 4t43.5 22v194h190v-530h-190zM369 227v-207h150v490h-150v-185q-34 -23 -57 -29t-56 -6q-30 0 -53.5 26.5t-23.5 56.5v137h-144v-199
q0 -64 48.5 -100.5t126.5 -36.5q39 0 74.5 11t84.5 42z" />
    <glyph glyph-name="oslash" unicode="&#xf8;" horiz-adv-x="860" 
d="M35 0v530h190v-384h110v384h190v-384h110v384h190v-530h-790zM55 510v-490h750v490h-150v-384h-150v384h-150v-384h-150v384h-150z" />
    <glyph glyph-name="oslash" unicode="&#x448;" horiz-adv-x="860" 
d="M35 0v530h190v-384h110v384h190v-384h110v384h190v-530h-790zM55 510v-490h750v490h-150v-384h-150v384h-150v-384h-150v384h-150z" />
    <glyph glyph-name="ugrave" unicode="&#xf9;" horiz-adv-x="885" 
d="M35 0v531h190v-385h110v385h190v-385h110v385h190v-385h60v-345h-158v199h-692zM55 511v-491h692v-199h118v305h-60v385h-150v-385h-150v385h-150v-385h-150v385h-150z" />
    <glyph glyph-name="ugrave" unicode="&#x449;" horiz-adv-x="885" 
d="M35 0v531h190v-385h110v385h190v-385h110v385h190v-385h60v-345h-158v199h-692zM55 511v-491h692v-199h118v305h-60v385h-150v-385h-150v385h-150v-385h-150v385h-150z" />
    <glyph glyph-name="uacute" unicode="&#xfa;" horiz-adv-x="564" 
d="M80 0v384h-90v146h280v-155h99q78 0 134 -58t56 -135q0 -75 -55.5 -128.5t-134.5 -53.5h-289zM270 239v-103h48q22 0 36.5 15.5t14.5 35.5t-15 36t-36 16h-48zM100 404v-384h269q67 0 117.5 47.5t50.5 114.5q0 71 -50 122t-118 51h-119v155h-240v-106h90zM250 116v143h70
q29 0 50 -21t21 -51q0 -29 -21 -50t-50 -21h-70z" />
    <glyph glyph-name="uacute" unicode="&#x44a;" horiz-adv-x="564" 
d="M80 0v384h-90v146h280v-155h99q78 0 134 -58t56 -135q0 -75 -55.5 -128.5t-134.5 -53.5h-289zM270 239v-103h48q22 0 36.5 15.5t14.5 35.5t-15 36t-36 16h-48zM100 404v-384h269q67 0 117.5 47.5t50.5 114.5q0 71 -50 122t-118 51h-119v155h-240v-106h90zM250 116v143h70
q29 0 50 -21t21 -51q0 -29 -21 -50t-50 -21h-70z" />
    <glyph glyph-name="ucircumflex" unicode="&#xfb;" horiz-adv-x="767" 
d="M542 0v530h190v-530h-190zM35 0v530h190v-155h99q78 0 134 -58t56 -135q0 -75 -55.5 -128.5t-134.5 -53.5h-289zM225 239v-103h48q22 0 36.5 15.5t14.5 35.5t-15 36t-36 16h-48zM562 510v-490h150v490h-150zM55 510v-490h269q70 0 120 46.5t50 115.5q0 71 -51 122
t-119 51h-119v155h-150zM205 116v143h68q27 0 49 -23t22 -49t-21.5 -48.5t-49.5 -22.5h-68z" />
    <glyph glyph-name="ucircumflex" unicode="&#x44b;" horiz-adv-x="767" 
d="M542 0v530h190v-530h-190zM35 0v530h190v-155h99q78 0 134 -58t56 -135q0 -75 -55.5 -128.5t-134.5 -53.5h-289zM225 239v-103h48q22 0 36.5 15.5t14.5 35.5t-15 36t-36 16h-48zM562 510v-490h150v490h-150zM55 510v-490h269q70 0 120 46.5t50 115.5q0 71 -51 122
t-119 51h-119v155h-150zM205 116v143h68q27 0 49 -23t22 -49t-21.5 -48.5t-49.5 -22.5h-68z" />
    <glyph glyph-name="udieresis" unicode="&#xfc;" horiz-adv-x="519" 
d="M35 0v530h190v-155h99q78 0 134 -58t56 -135q0 -75 -55.5 -128.5t-134.5 -53.5h-289zM225 239v-103h48q22 0 36.5 15.5t14.5 35.5t-15 36t-36 16h-48zM55 510v-490h269q70 0 120 47t50 115q0 71 -50 122t-120 51h-119v155h-150zM205 116v143h68q27 0 49 -23t22 -49
t-21.5 -48.5t-49.5 -22.5h-68z" />
    <glyph glyph-name="udieresis" unicode="&#x44c;" horiz-adv-x="519" 
d="M35 0v530h190v-155h99q78 0 134 -58t56 -135q0 -75 -55.5 -128.5t-134.5 -53.5h-289zM225 239v-103h48q22 0 36.5 15.5t14.5 35.5t-15 36t-36 16h-48zM55 510v-490h269q70 0 120 47t50 115q0 71 -50 122t-120 51h-119v155h-150zM205 116v143h68q27 0 49 -23t22 -49
t-21.5 -48.5t-49.5 -22.5h-68z" />
    <glyph glyph-name="yacute" unicode="&#xfd;" horiz-adv-x="562" 
d="M342 211h-175v120h172q0 31 -22 52t-53 21q-21 0 -40 -11t-26 -27h-183q18 81 82 127.5t167 46.5q115 0 196.5 -78t81.5 -189q0 -125 -78 -204t-201 -79q-102 0 -170 56q-64 52 -78 136h177q5 -25 23.5 -40.5t54.5 -15.5q31 0 51.5 23.5t20.5 61.5zM187 231h175
q0 -58 -26.5 -91.5t-65.5 -33.5t-68 21q-23 17 -26 35h-137q11 -61 67 -104q63 -48 157 -48q117 0 188 72t71 191q0 104 -74.5 175.5t-183.5 71.5q-95 0 -155 -39q-56 -36 -69 -95h145q5 12 30.5 25t48.5 13q39 0 68.5 -30t29.5 -83h-175v-80z" />
    <glyph glyph-name="yacute" unicode="&#x44d;" horiz-adv-x="562" 
d="M342 211h-175v120h172q0 31 -22 52t-53 21q-21 0 -40 -11t-26 -27h-183q18 81 82 127.5t167 46.5q115 0 196.5 -78t81.5 -189q0 -125 -78 -204t-201 -79q-102 0 -170 56q-64 52 -78 136h177q5 -25 23.5 -40.5t54.5 -15.5q31 0 51.5 23.5t20.5 61.5zM187 231h175
q0 -58 -26.5 -91.5t-65.5 -33.5t-68 21q-23 17 -26 35h-137q11 -61 67 -104q63 -48 157 -48q117 0 188 72t71 191q0 104 -74.5 175.5t-183.5 71.5q-95 0 -155 -39q-56 -36 -69 -95h145q5 12 30.5 25t48.5 13q39 0 68.5 -30t29.5 -83h-175v-80z" />
    <glyph glyph-name="thorn" unicode="&#xfe;" horiz-adv-x="877" 
d="M35 0v531h190v-184h52q25 89 102 141t183 52q134 0 217 -74t83 -199q0 -123 -85 -200t-215 -77q-111 0 -189.5 56.5t-99.5 154.5h-48v-201h-190zM562 146q53 0 79.5 33.5t26.5 87.5q0 53 -27 85t-79 32q-49 0 -75.5 -32.5t-26.5 -84.5q0 -54 26 -87.5t76 -33.5zM55 511
v-491h150v201h84q22 -103 93 -157t180 -54q123 0 201.5 70.5t78.5 186.5q0 118 -76 185.5t-204 67.5q-102 0 -172.5 -49.5t-97.5 -143.5h-87v184h-150zM562 126q-57 0 -89.5 40.5t-32.5 100.5q0 58 32.5 97.5t89.5 39.5q60 0 93 -38.5t33 -98.5t-30 -98q-34 -43 -96 -43z
" />
    <glyph glyph-name="thorn" unicode="&#x44e;" horiz-adv-x="877" 
d="M35 0v531h190v-184h52q25 89 102 141t183 52q134 0 217 -74t83 -199q0 -123 -85 -200t-215 -77q-111 0 -189.5 56.5t-99.5 154.5h-48v-201h-190zM562 146q53 0 79.5 33.5t26.5 87.5q0 53 -27 85t-79 32q-49 0 -75.5 -32.5t-26.5 -84.5q0 -54 26 -87.5t76 -33.5zM55 511
v-491h150v201h84q22 -103 93 -157t180 -54q123 0 201.5 70.5t78.5 186.5q0 118 -76 185.5t-204 67.5q-102 0 -172.5 -49.5t-97.5 -143.5h-87v184h-150zM562 126q-57 0 -89.5 40.5t-32.5 100.5q0 58 32.5 97.5t89.5 39.5q60 0 93 -38.5t33 -98.5t-30 -98q-34 -43 -96 -43z
" />
    <glyph glyph-name="ydieresis" unicode="&#xff;" horiz-adv-x="534" 
d="M309 0v174h-17q-16 0 -21.5 -4t-11.5 -24l-45 -146h-209l59 159q19 46 47 64q-91 39 -91 135q0 71 52.5 121.5t137.5 50.5h289v-530h-190zM309 294v100h-46q-21 0 -37 -13t-16 -33q0 -22 16 -38t37 -16h46zM329 194v-174h150v490h-269q-78 0 -124 -43t-46 -109
q0 -48 24.5 -77.5t93.5 -55.5q-29 -5 -47.5 -25.5t-27.5 -47.5l-49 -132h165l41 132q7 23 17.5 32.5t34.5 9.5h37zM329 414v-140h-66q-27 0 -50 22t-23 52q0 26 23 46t50 20h66z" />
    <glyph glyph-name="ydieresis" unicode="&#x44f;" horiz-adv-x="534" 
d="M309 0v174h-17q-16 0 -21.5 -4t-11.5 -24l-45 -146h-209l59 159q19 46 47 64q-91 39 -91 135q0 71 52.5 121.5t137.5 50.5h289v-530h-190zM309 294v100h-46q-21 0 -37 -13t-16 -33q0 -22 16 -38t37 -16h46zM329 194v-174h150v490h-269q-78 0 -124 -43t-46 -109
q0 -48 24.5 -77.5t93.5 -55.5q-29 -5 -47.5 -25.5t-27.5 -47.5l-49 -132h165l41 132q7 23 17.5 32.5t34.5 9.5h37zM329 414v-140h-66q-27 0 -50 22t-23 52q0 26 23 46t50 20h66z" />
    <glyph glyph-name="uni0401" unicode="&#x401;" horiz-adv-x="665" 
d="M583 762h-200v183h200v-183zM335 762h-200v183h200v-183zM45 0v728h594v-168h-394v-103h364v-168h-364v-121h413v-168h-613zM403 782h160v143h-160v-143zM155 782h160v143h-160v-143zM65 708v-688h573v128h-413v161h364v128h-364v143h394v128h-554z" />
    <glyph glyph-name="uni0451" unicode="&#x451;" horiz-adv-x="590" 
d="M500 576h-190v172h190v-172zM279 576h-190v172h190v-172zM577 220h-370q0 -39 25.5 -66.5t62.5 -27.5q29 0 53 16t32 40h190q-11 -80 -91 -136t-184 -56q-116 0 -198 83t-82 200q0 111 81.5 189t198.5 78t199.5 -75.5t82.5 -182.5v-62zM207 336h173q-4 26 -30.5 47
t-58.5 21q-31 0 -56 -20t-28 -48zM330 596h150v132h-150v-132zM109 596h150v132h-150v-132zM187 240h370v42q0 100 -75 169t-187 69q-111 0 -185.5 -71.5t-74.5 -175.5q0 -111 75 -187t185 -76q96 0 170 47t82 105h-152q-6 -19 -37.5 -37.5t-62.5 -18.5q-45 0 -76.5 37.5
t-31.5 96.5zM403 316h-218q5 48 36 78t70 30t72 -30t40 -78z" />
    <glyph glyph-name="uni2116" unicode="&#x2116;" horiz-adv-x="1044" 
d="M878 131q-59 0 -104 47t-45 107q0 62 43.5 107.5t102.5 45.5q57 0 103 -47t46 -107q0 -62 -44.5 -107.5t-101.5 -45.5zM878 243q17 0 28 12t11 29q0 18 -12 30t-30 12q-16 0 -27.5 -12.5t-11.5 -29.5t12 -29t30 -12zM736 0v103h281v-103h-281zM878 151q51 0 88.5 38.5
t37.5 94.5q0 53 -38.5 93.5t-90.5 40.5q-53 0 -89.5 -38.5t-36.5 -94.5q0 -53 38.5 -93.5t90.5 -40.5zM878 223q-24 0 -43 18t-19 43q0 22 18 42t41 20q24 0 43 -19t19 -43q0 -22 -17.5 -41.5t-41.5 -19.5zM756 83v-63h241v63h-241zM45 0v728h201l226 -395l2 395h200v-728
h-200l-227 402l-2 -402h-200zM65 708v-688h160v459l261 -459h168v688h-160v-450l-260 450h-169z" />
    </font>
</defs>
</svg>
